  0
SECTION
  2
HEADER
  9
$ACADVER
  1
AC1015
  9
$ACADMAINTVER
 70
    13
  9
$DWGCODEPAGE
  3
ANSI_1250
  9
$INSBASE
 10
0.0
 20
0.0
 30
0.0
  9
$EXTMIN
 10
1783.059023146985
 20
-548.3569132591733
 30
-0.0015258207003583
  9
$EXTMAX
 10
2627.438175008579
 20
867.803521436485
 30
0.0000000349246037
  9
$LIMMIN
 10
0.0
 20
0.0
  9
$LIMMAX
 10
420.0
 20
297.0
  9
$ORTHOMODE
 70
     0
  9
$REGENMODE
 70
     1
  9
$FILLMODE
 70
     1
  9
$QTEXTMODE
 70
     0
  9
$MIRRTEXT
 70
     1
  9
$LTSCALE
 40
1.0
  9
$ATTMODE
 70
     1
  9
$TEXTSIZE
 40
2.5
  9
$TRACEWID
 40
1.0
  9
$TEXTSTYLE
  7
Standard
  9
$CLAYER
  8
0
  9
$CELTYPE
  6
ByLayer
  9
$CECOLOR
 62
   256
  9
$CELTSCALE
 40
1.0
  9
$DISPSILH
 70
     0
  9
$DIMSCALE
 40
1.0
  9
$DIMASZ
 40
2.5
  9
$DIMEXO
 40
0.625
  9
$DIMDLI
 40
3.75
  9
$DIMRND
 40
0.0
  9
$DIMDLE
 40
0.0
  9
$DIMEXE
 40
1.25
  9
$DIMTP
 40
0.0
  9
$DIMTM
 40
0.0
  9
$DIMTXT
 40
2.5
  9
$DIMCEN
 40
2.5
  9
$DIMTSZ
 40
0.0
  9
$DIMTOL
 70
     0
  9
$DIMLIM
 70
     0
  9
$DIMTIH
 70
     0
  9
$DIMTOH
 70
     0
  9
$DIMSE1
 70
     0
  9
$DIMSE2
 70
     0
  9
$DIMTAD
 70
     1
  9
$DIMZIN
 70
     8
  9
$DIMBLK
  1

  9
$DIMASO
 70
     1
  9
$DIMSHO
 70
     1
  9
$DIMPOST
  1

  9
$DIMAPOST
  1

  9
$DIMALT
 70
     0
  9
$DIMALTD
 70
     3
  9
$DIMALTF
 40
0.03937007874016
  9
$DIMLFAC
 40
1.0
  9
$DIMTOFL
 70
     1
  9
$DIMTVP
 40
0.0
  9
$DIMTIX
 70
     0
  9
$DIMSOXD
 70
     0
  9
$DIMSAH
 70
     0
  9
$DIMBLK1
  1

  9
$DIMBLK2
  1

  9
$DIMSTYLE
  2
ISO-25
  9
$DIMCLRD
 70
     0
  9
$DIMCLRE
 70
     0
  9
$DIMCLRT
 70
     0
  9
$DIMTFAC
 40
1.0
  9
$DIMGAP
 40
0.625
  9
$DIMJUST
 70
     0
  9
$DIMSD1
 70
     0
  9
$DIMSD2
 70
     0
  9
$DIMTOLJ
 70
     0
  9
$DIMTZIN
 70
     8
  9
$DIMALTZ
 70
     0
  9
$DIMALTTZ
 70
     0
  9
$DIMUPT
 70
     0
  9
$DIMDEC
 70
     2
  9
$DIMTDEC
 70
     2
  9
$DIMALTU
 70
     2
  9
$DIMALTTD
 70
     3
  9
$DIMTXSTY
  7
Standard
  9
$DIMAUNIT
 70
     0
  9
$DIMADEC
 70
     0
  9
$DIMALTRND
 40
0.0
  9
$DIMAZIN
 70
     0
  9
$DIMDSEP
 70
    44
  9
$DIMATFIT
 70
     3
  9
$DIMFRAC
 70
     0
  9
$DIMLDRBLK
  1

  9
$DIMLUNIT
 70
     2
  9
$DIMLWD
 70
    -2
  9
$DIMLWE
 70
    -2
  9
$DIMTMOVE
 70
     0
  9
$LUNITS
 70
     2
  9
$LUPREC
 70
     4
  9
$SKETCHINC
 40
1.0
  9
$FILLETRAD
 40
10.0
  9
$AUNITS
 70
     0
  9
$AUPREC
 70
     0
  9
$MENU
  1
.
  9
$ELEVATION
 40
0.0
  9
$PELEVATION
 40
0.0
  9
$THICKNESS
 40
0.0
  9
$LIMCHECK
 70
     0
  9
$CHAMFERA
 40
10.0
  9
$CHAMFERB
 40
10.0
  9
$CHAMFERC
 40
20.0
  9
$CHAMFERD
 40
0.0
  9
$SKPOLY
 70
     0
  9
$TDCREATE
 40
2452334.465307870
  9
$TDUCREATE
 40
2452334.423641203
  9
$TDUPDATE
 40
2455595.897106296
  9
$TDUUPDATE
 40
2455595.855439629
  9
$TDINDWG
 40
0.0239017477
  9
$TDUSRTIMER
 40
0.0239017477
  9
$USRTIMER
 70
     1
  9
$ANGBASE
 50
0.0
  9
$ANGDIR
 70
     0
  9
$PDMODE
 70
     0
  9
$PDSIZE
 40
0.0
  9
$PLINEWID
 40
0.0
  9
$SPLFRAME
 70
     0
  9
$SPLINETYPE
 70
     6
  9
$SPLINESEGS
 70
     8
  9
$HANDSEED
  5
1B0F
  9
$SURFTAB1
 70
     6
  9
$SURFTAB2
 70
     6
  9
$SURFTYPE
 70
     6
  9
$SURFU
 70
     6
  9
$SURFV
 70
     6
  9
$UCSBASE
  2

  9
$UCSNAME
  2

  9
$UCSORG
 10
0.0
 20
0.0
 30
0.0
  9
$UCSXDIR
 10
1.0
 20
0.0
 30
0.0
  9
$UCSYDIR
 10
0.0
 20
1.0
 30
0.0
  9
$UCSORTHOREF
  2

  9
$UCSORTHOVIEW
 70
     0
  9
$UCSORGTOP
 10
0.0
 20
0.0
 30
0.0
  9
$UCSORGBOTTOM
 10
0.0
 20
0.0
 30
0.0
  9
$UCSORGLEFT
 10
0.0
 20
0.0
 30
0.0
  9
$UCSORGRIGHT
 10
0.0
 20
0.0
 30
0.0
  9
$UCSORGFRONT
 10
0.0
 20
0.0
 30
0.0
  9
$UCSORGBACK
 10
0.0
 20
0.0
 30
0.0
  9
$PUCSBASE
  2

  9
$PUCSNAME
  2

  9
$PUCSORG
 10
0.0
 20
0.0
 30
0.0
  9
$PUCSXDIR
 10
1.0
 20
0.0
 30
0.0
  9
$PUCSYDIR
 10
0.0
 20
1.0
 30
0.0
  9
$PUCSORTHOREF
  2

  9
$PUCSORTHOVIEW
 70
     0
  9
$PUCSORGTOP
 10
0.0
 20
0.0
 30
0.0
  9
$PUCSORGBOTTOM
 10
0.0
 20
0.0
 30
0.0
  9
$PUCSORGLEFT
 10
0.0
 20
0.0
 30
0.0
  9
$PUCSORGRIGHT
 10
0.0
 20
0.0
 30
0.0
  9
$PUCSORGFRONT
 10
0.0
 20
0.0
 30
0.0
  9
$PUCSORGBACK
 10
0.0
 20
0.0
 30
0.0
  9
$USERI1
 70
     0
  9
$USERI2
 70
     0
  9
$USERI3
 70
     0
  9
$USERI4
 70
     0
  9
$USERI5
 70
     0
  9
$USERR1
 40
0.0
  9
$USERR2
 40
0.0
  9
$USERR3
 40
0.0
  9
$USERR4
 40
0.0
  9
$USERR5
 40
0.0
  9
$WORLDVIEW
 70
     1
  9
$SHADEDGE
 70
     3
  9
$SHADEDIF
 70
    70
  9
$TILEMODE
 70
     1
  9
$MAXACTVP
 70
    48
  9
$PINSBASE
 10
0.0
 20
0.0
 30
0.0
  9
$PLIMCHECK
 70
     0
  9
$PEXTMIN
 10
1.000000000000000E+20
 20
1.000000000000000E+20
 30
1.000000000000000E+20
  9
$PEXTMAX
 10
-1.000000000000000E+20
 20
-1.000000000000000E+20
 30
-1.000000000000000E+20
  9
$PLIMMIN
 10
0.0
 20
0.0
  9
$PLIMMAX
 10
420.0
 20
297.0
  9
$UNITMODE
 70
     0
  9
$VISRETAIN
 70
     1
  9
$PLINEGEN
 70
     0
  9
$PSLTSCALE
 70
     1
  9
$TREEDEPTH
 70
  3020
  9
$CMLSTYLE
  2
Standard
  9
$CMLJUST
 70
     0
  9
$CMLSCALE
 40
20.0
  9
$PROXYGRAPHICS
 70
     1
  9
$MEASUREMENT
 70
     1
  9
$CELWEIGHT
370
    -1
  9
$ENDCAPS
280
     0
  9
$JOINSTYLE
280
     0
  9
$LWDISPLAY
290
     0
  9
$INSUNITS
 70
     4
  9
$HYPERLINKBASE
  1

  9
$STYLESHEET
  1

  9
$XEDIT
290
     1
  9
$CEPSNTYPE
380
     0
  9
$PSTYLEMODE
290
     1
  9
$FINGERPRINTGUID
  2
{4216A968-507C-4CB8-873B-AD6C9E89F3B1}
  9
$VERSIONGUID
  2
{6EE2DED5-781B-4E0D-9C59-658908A67EF4}
  9
$EXTNAMES
290
     1
  9
$PSVPSCALE
 40
0.0
  9
$OLESTARTUP
290
     0
  0
ENDSEC
  0
SECTION
  2
CLASSES
  0
CLASS
  1
ACDBDICTIONARYWDFLT
  2
AcDbDictionaryWithDefault
  3
AutoCAD 2000
 90
        0
280
     0
281
     0
  0
CLASS
  1
ACDBPLACEHOLDER
  2
AcDbPlaceHolder
  3
AutoCAD 2000
 90
        0
280
     0
281
     0
  0
CLASS
  1
LAYOUT
  2
AcDbLayout
  3
AutoCAD 2000
 90
        0
280
     0
281
     0
  0
CLASS
  1
LONG_TRANSACTION
  2
AcDbLongTransaction
  3
AutoCAD 2000
 90
    32768
280
     0
281
     0
  0
CLASS
  1
LWPOLYLINE
  2
AcDbPolyline
  3
AutoCAD 2000
 90
    32768
280
     0
281
     1
  0
CLASS
  1
HATCH
  2
AcDbHatch
  3
AutoCAD 2000
 90
    32768
280
     0
281
     1
  0
CLASS
  1
XRECORD
  2
AcDbXrecord
  3
AutoCAD 2000
 90
    32768
280
     0
281
     0
  0
CLASS
  1
LONG_TRANSACTION
  2
AcDbLongTransaction
  3
AutoCAD 2000
 90
    32768
280
     0
281
     0
  0
CLASS
  1
LWPOLYLINE
  2
AcDbPolyline
  3
AutoCAD 2000
 90
    32768
280
     0
281
     1
  0
CLASS
  1
HATCH
  2
AcDbHatch
  3
AutoCAD 2000
 90
    32768
280
     0
281
     1
  0
CLASS
  1
XRECORD
  2
AcDbXrecord
  3
AutoCAD 2000
 90
    32768
280
     0
281
     0
  0
CLASS
  1
DICTIONARYVAR
  2
AcDbDictionaryVar
  3
AutoCAD 2000
 90
        0
280
     0
281
     0
  0
ENDSEC
  0
SECTION
  2
TABLES
  0
TABLE
  2
VPORT
  5
8
330
0
100
AcDbSymbolTable
 70
     2
  0
VPORT
  5
1B0E
330
8
100
AcDbSymbolTableRecord
100
AcDbViewportTableRecord
  2
*Active
 70
     0
 10
0.0
 20
0.0
 11
1.0
 21
1.0
 12
2205.248599077782
 22
159.7233040886558
 13
0.0
 23
0.0
 14
10.0
 24
10.0
 15
10.0
 25
10.0
 16
0.0
 26
0.0
 36
1.0
 17
0.0
 27
0.0
 37
0.0
 40
1429.499465477721
 41
2.229559748427672
 42
50.0
 43
0.0
 44
0.0
 50
0.0
 51
0.0
 71
     0
 72
   100
 73
     1
 74
     3
 75
     0
 76
     0
 77
     0
 78
     0
281
     0
 65
     1
110
0.0
120
0.0
130
0.0
111
1.0
121
0.0
131
0.0
112
0.0
122
1.0
132
0.0
 79
     0
146
0.0
  0
ENDTAB
  0
TABLE
  2
LTYPE
  5
5
330
0
100
AcDbSymbolTable
 70
     4
  0
LTYPE
  5
14
330
5
100
AcDbSymbolTableRecord
100
AcDbLinetypeTableRecord
  2
ByBlock
 70
     0
  3

 72
    65
 73
     0
 40
0.0
  0
LTYPE
  5
15
330
5
100
AcDbSymbolTableRecord
100
AcDbLinetypeTableRecord
  2
ByLayer
 70
     0
  3

 72
    65
 73
     0
 40
0.0
  0
LTYPE
  5
16
330
5
100
AcDbSymbolTableRecord
100
AcDbLinetypeTableRecord
  2
Continuous
 70
     0
  3
Solid line
 72
    65
 73
     0
 40
0.0
  0
LTYPE
  5
33
330
5
100
AcDbSymbolTableRecord
100
AcDbLinetypeTableRecord
  2
IZOLACE
 70
     0
  3
Izolace SSSSSSSSSSSSSSSSSSSSSSSSSSSSSSSSSSSSSSS
 72
    65
 73
     4
 40
10.16253999999999
 49
0.00254
 74
     0
 49
-2.54
 74
     4
 75
   134
340
3D
 46
2.54
 50
0.0
 44
-2.54
 45
0.0
 49
-5.08
 74
     4
 75
   134
340
3D
 46
2.54
 50
180.0
 44
2.54
 45
0.0
 49
-2.54
 74
     0
  0
LTYPE
  5
34
330
5
100
AcDbSymbolTableRecord
100
AcDbLinetypeTableRecord
  2
DASHED
 70
     0
  3
Dashed __ __ __ __ __ __ __ __ __ __ __ __ __ _
 72
    65
 73
     2
 40
19.04999999999999
 49
12.7
 74
     0
 49
-6.349999999999999
 74
     0
  0
LTYPE
  5
35
330
5
100
AcDbSymbolTableRecord
100
AcDbLinetypeTableRecord
  2
DASHDOT2
 70
     0
  3
Dash dot (.5x) _._._._._._._._._._._._._._._.
 72
    65
 73
     4
 40
12.7
 49
6.349999999999999
 74
     0
 49
-3.174999999999999
 74
     0
 49
0.0
 74
     0
 49
-3.174999999999999
 74
     0
  0
ENDTAB
  0
TABLE
  2
LAYER
  5
2
330
0
100
AcDbSymbolTable
 70
     8
  0
LAYER
  5
10
330
2
100
AcDbSymbolTableRecord
100
AcDbLayerTableRecord
  2
0
 70
     0
 62
     7
  6
Continuous
370
    -3
390
F
  0
LAYER
  5
36
330
2
100
AcDbSymbolTableRecord
100
AcDbLayerTableRecord
  2
POPIS
 70
     0
 62
    30
  6
Continuous
370
    -3
390
F
  0
LAYER
  5
37
330
2
100
AcDbSymbolTableRecord
100
AcDbLayerTableRecord
  2
SPOJOVACÍ
 70
     0
 62
   180
  6
Continuous
370
    -3
390
F
  0
LAYER
  5
38
330
2
100
AcDbSymbolTableRecord
100
AcDbLayerTableRecord
  2
CETRIS
 70
     0
 62
     1
  6
Continuous
370
    -3
390
F
  0
LAYER
  5
39
330
2
100
AcDbSymbolTableRecord
100
AcDbLayerTableRecord
  2
NOSNÉ KONSTRUKCE
 70
     0
 62
    33
  6
Continuous
370
    -3
390
F
  0
LAYER
  5
3A
330
2
100
AcDbSymbolTableRecord
100
AcDbLayerTableRecord
  2
PROFILY
 70
     0
 62
    73
  6
Continuous
370
    -3
390
F
  0
LAYER
  5
3B
330
2
100
AcDbSymbolTableRecord
100
AcDbLayerTableRecord
  2
STAVBA OBRYS
 70
     0
 62
     6
  6
Continuous
370
    -3
390
F
  0
LAYER
  5
5FD
330
2
100
AcDbSymbolTableRecord
100
AcDbLayerTableRecord
  2
Defpoints
 70
     0
 62
     7
  6
Continuous
290
     0
370
    -3
390
F
  0
ENDTAB
  0
TABLE
  2
STYLE
  5
3
330
0
100
AcDbSymbolTable
 70
     3
  0
STYLE
  5
11
330
3
100
AcDbSymbolTableRecord
100
AcDbTextStyleTableRecord
  2
Standard
 70
     0
 40
0.0
 41
1.0
 50
0.0
 71
     0
 42
2.5
  3
txt
  4

  0
STYLE
  5
3C
330
3
100
AcDbSymbolTableRecord
100
AcDbTextStyleTableRecord
  2
SIMPLEX7
 70
     0
 40
0.0
 41
0.85
 50
0.0
 71
     0
 42
102.0
  3
ARIAL.TTF
  4

1001
ACAD
1000
Arial CE
1071
    60962
  0
STYLE
  5
3D
330
3
100
AcDbSymbolTableRecord
100
AcDbTextStyleTableRecord
  2

 70
     1
 40
0.0
 41
1.0
 50
0.0
 71
     0
 42
2.5
  3
ltypeshp.shx
  4

  0
ENDTAB
  0
TABLE
  2
VIEW
  5
6
330
0
100
AcDbSymbolTable
 70
     0
  0
ENDTAB
  0
TABLE
  2
UCS
  5
7
330
0
100
AcDbSymbolTable
 70
     0
  0
ENDTAB
  0
TABLE
  2
APPID
  5
9
330
0
100
AcDbSymbolTable
 70
     1
  0
APPID
  5
12
330
9
100
AcDbSymbolTableRecord
100
AcDbRegAppTableRecord
  2
ACAD
 70
     0
  0
ENDTAB
  0
TABLE
  2
DIMSTYLE
  5
A
330
0
100
AcDbSymbolTable
 70
     1
100
AcDbDimStyleTable
 71
     0
  0
DIMSTYLE
105
27
102
{ACAD_REACTORS
330
1924
330
1A00
102
}
330
A
100
AcDbSymbolTableRecord
100
AcDbDimStyleTableRecord
  2
ISO-25
 70
     0
 41
2.5
 42
0.625
 43
3.75
 44
1.25
 73
     0
 74
     0
 77
     1
 78
     8
140
2.5
141
2.5
143
0.03937007874016
147
0.625
171
     3
172
     1
271
     2
272
     2
274
     3
278
    44
283
     0
284
     8
340
11
  0
ENDTAB
  0
TABLE
  2
BLOCK_RECORD
  5
1
330
0
100
AcDbSymbolTable
 70
     5
  0
BLOCK_RECORD
  5
1F
102
{ACAD_XDICTIONARY
360
1A36
102
}
330
1
100
AcDbSymbolTableRecord
100
AcDbBlockTableRecord
  2
*Model_Space
340
22
  0
BLOCK_RECORD
  5
1B
102
{ACAD_XDICTIONARY
360
1A38
102
}
330
1
100
AcDbSymbolTableRecord
100
AcDbBlockTableRecord
  2
*Paper_Space
340
1E
  0
BLOCK_RECORD
  5
23
102
{ACAD_XDICTIONARY
360
1A3A
102
}
330
1
100
AcDbSymbolTableRecord
100
AcDbBlockTableRecord
  2
*Paper_Space0
340
26
  0
BLOCK_RECORD
  5
2B
330
1
100
AcDbSymbolTableRecord
100
AcDbBlockTableRecord
  2
E_PUNKT
340
0
102
{BLKREFS
331
18DA
331
18DE
331
18E0
331
18E3
331
190A
331
191A
331
191E
331
19E9
331
1AE2
102
}
  0
BLOCK_RECORD
  5
1A0B
330
1
100
AcDbSymbolTableRecord
100
AcDbBlockTableRecord
  2
*D2
340
0
  0
BLOCK_RECORD
  5
1A17
330
1
100
AcDbSymbolTableRecord
100
AcDbBlockTableRecord
  2
*D3
340
0
  0
BLOCK_RECORD
  5
1AC0
330
1
100
AcDbSymbolTableRecord
100
AcDbBlockTableRecord
  2
_ArchTick
340
0
102
{BLKREFS
331
1AEA
331
1AED
102
}
  0
ENDTAB
  0
ENDSEC
  0
SECTION
  2
BLOCKS
  0
BLOCK
  5
20
330
1F
100
AcDbEntity
  8
0
100
AcDbBlockBegin
  2
*Model_Space
 70
     0
 10
0.0
 20
0.0
 30
0.0
  3
*Model_Space
  1

  0
ENDBLK
  5
21
330
1F
100
AcDbEntity
  8
0
100
AcDbBlockEnd
  0
BLOCK
  5
1C
330
1B
100
AcDbEntity
 67
     1
  8
0
100
AcDbBlockBegin
  2
*Paper_Space
 70
     0
 10
0.0
 20
0.0
 30
0.0
  3
*Paper_Space
  1

  0
ENDBLK
  5
1D
330
1B
100
AcDbEntity
 67
     1
  8
0
100
AcDbBlockEnd
  0
BLOCK
  5
24
330
23
100
AcDbEntity
  8
0
100
AcDbBlockBegin
  2
*Paper_Space0
 70
     0
 10
0.0
 20
0.0
 30
0.0
  3
*Paper_Space0
  1

  0
ENDBLK
  5
25
330
23
100
AcDbEntity
  8
0
100
AcDbBlockEnd
  0
BLOCK
  5
2D
330
2B
100
AcDbEntity
  8
0
100
AcDbBlockBegin
  2
E_PUNKT
 70
     0
 10
0.0
 20
0.0
 30
0.0
  3
E_PUNKT
  1

  0
LWPOLYLINE
  5
2C
330
2B
100
AcDbEntity
  8
POPIS
100
AcDbPolyline
 90
        2
 70
     1
 43
2.5
 10
1.27761037562675
 20
0.0290683308725193
 42
-1.0
 10
-1.222389624373249
 20
0.0290683308725193
 42
-1.0
  0
ENDBLK
  5
2E
330
2B
100
AcDbEntity
  8
0
100
AcDbBlockEnd
  0
BLOCK
  5
1A15
330
1A0B
100
AcDbEntity
  8
0
100
AcDbBlockBegin
  2
*D2
 70
     1
 10
0.0
 20
0.0
 30
0.0
  3
*D2
  1

  0
LINE
  5
1B05
330
1A0B
100
AcDbEntity
  8
POPIS
 62
     0
370
    -2
100
AcDbLine
 10
2277.859126976534
 20
327.8451310511485
 30
0.0
 11
2302.585488546934
 21
327.8451310511485
 31
0.0
  0
LINE
  5
1B06
330
1A0B
100
AcDbEntity
  8
POPIS
 62
     0
370
    -2
100
AcDbLine
 10
2288.228040402042
 20
227.5266571386477
 30
0.0
 11
2302.585488546934
 21
227.5266571386477
 31
0.0
  0
LINE
  5
1B07
330
1A0B
100
AcDbEntity
  8
POPIS
 62
     0
370
    -2
100
AcDbLine
 10
2301.335488546934
 20
325.3451310511485
 30
0.0
 11
2301.335488546934
 21
230.0266571386476
 31
0.0
  0
SOLID
  5
1B08
330
1A0B
100
AcDbEntity
  8
POPIS
 62
     0
100
AcDbTrace
 10
2300.918821880267
 20
325.3451310511485
 30
0.0
 11
2301.752155213601
 21
325.3451310511485
 31
0.0
 12
2301.335488546934
 22
327.8451310511485
 32
0.0
 13
2301.335488546934
 23
327.8451310511485
 33
0.0
  0
SOLID
  5
1B09
330
1A0B
100
AcDbEntity
  8
POPIS
 62
     0
100
AcDbTrace
 10
2300.918821880267
 20
230.0266571386476
 30
0.0
 11
2301.752155213601
 21
230.0266571386476
 31
0.0
 12
2301.335488546934
 22
227.5266571386477
 32
0.0
 13
2301.335488546934
 23
227.5266571386477
 33
0.0
  0
MTEXT
  5
1B0A
330
1A0B
100
AcDbEntity
  8
POPIS
 62
     0
100
AcDbMText
 10
2299.460488546934
 20
277.6858940948985
 30
0.0
 40
2.5
 41
0.0
 71
     5
 72
     1
  1
100
 11
0.0000000000000001
 21
1.0
 31
0.0
 73
     1
 44
1.0
  0
POINT
  5
1B0B
330
1A0B
100
AcDbEntity
  8
Defpoints
 62
     0
100
AcDbPoint
 10
2277.234126976535
 20
327.8451310511485
 30
0.0
  0
POINT
  5
1B0C
330
1A0B
100
AcDbEntity
  8
Defpoints
 62
     0
100
AcDbPoint
 10
2287.603040402042
 20
227.5266571386477
 30
0.0
  0
POINT
  5
1B0D
330
1A0B
100
AcDbEntity
  8
Defpoints
 62
     0
100
AcDbPoint
 10
2301.335488546934
 20
227.5266571386477
 30
0.0
  0
ENDBLK
  5
1A16
330
1A0B
100
AcDbEntity
  8
0
100
AcDbBlockEnd
  0
BLOCK
  5
1A21
330
1A17
100
AcDbEntity
  8
0
100
AcDbBlockBegin
  2
*D3
 70
     1
 10
0.0
 20
0.0
 30
0.0
  3
*D3
  1

  0
LINE
  5
1AFC
330
1A17
100
AcDbEntity
  8
POPIS
 62
     0
370
    -2
100
AcDbLine
 10
2248.848102573111
 20
344.1490772425499
 30
0.0
 11
2248.848102573111
 21
394.8349940136307
 31
0.0
  0
LINE
  5
1AFD
330
1A17
100
AcDbEntity
  8
POPIS
 62
     0
370
    -2
100
AcDbLine
 10
2148.885221492928
 20
373.7044471699103
 30
0.0
 11
2148.885221492928
 21
394.8349940136307
 31
0.0
  0
LINE
  5
1AFE
330
1A17
100
AcDbEntity
  8
POPIS
 62
     0
370
    -2
100
AcDbLine
 10
2246.348102573111
 20
393.5849940136307
 30
0.0
 11
2151.385221492928
 21
393.5849940136307
 31
0.0
  0
SOLID
  5
1AFF
330
1A17
100
AcDbEntity
  8
POPIS
 62
     0
100
AcDbTrace
 10
2246.348102573111
 20
394.0016606802974
 30
0.0
 11
2246.348102573111
 21
393.168327346964
 31
0.0
 12
2248.848102573111
 22
393.5849940136307
 32
0.0
 13
2248.848102573111
 23
393.5849940136307
 33
0.0
  0
SOLID
  5
1B00
330
1A17
100
AcDbEntity
  8
POPIS
 62
     0
100
AcDbTrace
 10
2151.385221492928
 20
394.0016606802974
 30
0.0
 11
2151.385221492928
 21
393.168327346964
 31
0.0
 12
2148.885221492928
 22
393.5849940136307
 32
0.0
 13
2148.885221492928
 23
393.5849940136307
 33
0.0
  0
MTEXT
  5
1B01
330
1A17
100
AcDbEntity
  8
POPIS
 62
     0
100
AcDbMText
 10
2198.866662033019
 20
395.4599940136307
 30
0.0
 40
2.5
 41
0.0
 71
     5
 72
     1
  1
100
 73
     1
 44
1.0
  0
POINT
  5
1B02
330
1A17
100
AcDbEntity
  8
Defpoints
 62
     0
100
AcDbPoint
 10
2248.848102573111
 20
343.5240772425498
 30
0.0
  0
POINT
  5
1B03
330
1A17
100
AcDbEntity
  8
Defpoints
 62
     0
100
AcDbPoint
 10
2148.885221492928
 20
373.0794471699104
 30
0.0
  0
POINT
  5
1B04
330
1A17
100
AcDbEntity
  8
Defpoints
 62
     0
100
AcDbPoint
 10
2148.885221492928
 20
393.5849940136307
 30
0.0
  0
ENDBLK
  5
1A22
330
1A17
100
AcDbEntity
  8
0
100
AcDbBlockEnd
  0
BLOCK
  5
1AC2
330
1AC0
100
AcDbEntity
  8
0
100
AcDbBlockBegin
  2
_ArchTick
 70
     0
 10
0.0
 20
0.0
 30
0.0
  3
_ArchTick
  1

  0
LWPOLYLINE
  5
1AC1
330
1AC0
100
AcDbEntity
  8
0
  6
ByBlock
 62
     0
100
AcDbPolyline
 90
        2
 70
     0
 43
0.15
 10
-0.5
 20
-0.5
 10
0.5
 20
0.5
  0
ENDBLK
  5
1AC3
330
1AC0
100
AcDbEntity
  8
0
100
AcDbBlockEnd
  0
ENDSEC
  0
SECTION
  2
ENTITIES
  0
HATCH
  5
17B8
330
1F
100
AcDbEntity
  8
CETRIS
100
AcDbHatch
 10
0.0
 20
0.0
 30
0.0
210
0.0
220
0.0
230
1.0
  2
SOLID
 70
     1
 71
     0
 91
       10
 92
        7
 72
     0
 73
     1
 93
        4
 10
2008.739238069563
 20
636.8694676114158
 10
1996.739238069563
 20
636.8694676114167
 10
1996.739238069565
 20
518.6774367956854
 10
2008.739238069562
 20
518.6774367956854
 97
        0
 92
        7
 72
     0
 73
     1
 93
        4
 10
2008.739238069563
 20
518.6774367956844
 10
1996.739238069563
 20
518.6774367956844
 10
1996.739238069563
 20
445.5299122365371
 10
2008.739238069563
 20
437.8982385156108
 97
        0
 92
        7
 72
     0
 73
     1
 93
        4
 10
2008.739238069567
 20
437.8982385156072
 10
1996.739238069563
 20
445.5299122365389
 10
1996.739238069563
 20
407.297079878011
 10
2008.739238069562
 20
396.2993908216761
 97
        0
 92
        7
 72
     0
 73
     1
 93
        4
 10
2008.739238069565
 20
396.2993908216716
 10
1996.739238069563
 20
407.2970798780055
 10
1996.739238069562
 20
359.6775306151761
 10
2008.73923806956
 20
341.7357578572076
 97
        0
 92
        7
 72
     0
 73
     1
 93
        4
 10
2008.739238069567
 20
341.7357578572004
 10
1996.739238069563
 20
359.6775306151716
 10
1996.739238069563
 20
231.8475248689923
 10
2008.739238069563
 20
231.8475248689923
 97
        0
 92
        7
 72
     0
 73
     1
 93
        4
 10
2008.73923806956
 20
231.8475248689913
 10
1996.739238069565
 20
231.8475248689923
 10
1996.739238069567
 20
181.2128457625207
 10
2008.739238069562
 20
181.2128457625207
 97
        0
 92
        7
 72
     0
 73
     1
 93
       14
 10
2008.739238069562
 20
181.2128457625207
 10
1996.739238069565
 20
181.2128457625207
 10
1996.739238069565
 20
128.2658568011123
 10
1997.939164846298
 20
128.2658568011123
 10
1998.683305482767
 20
126.9161717175678
 10
1999.752077472183
 20
125.8055418172065
 10
2001.071066750479
 20
125.0093113378847
 10
2002.551906617527
 20
124.5814304735862
 10
2003.338835340648
 20
124.5153879916637
 10
2007.38705923994
 20
124.5153879916637
 10
2007.160927685687
 20
125.1879050900928
 10
2007.60741082143
 20
125.6332912183555
 10
2007.983301924867
 20
124.5153879916637
 10
2008.73923806956
 20
124.5153879916637
 97
        0
 92
        7
 72
     0
 73
     1
 93
       11
 10
2008.73923806956
 20
120.4939970537447
 10
2008.294713144699
 20
121.8160178289275
 10
2003.338835340655
 20
121.8160178289284
 10
2001.815207387226
 20
121.5890549380441
 10
2000.401340177519
 20
120.9760690888946
 10
1999.193971994618
 20
120.0179880189092
 10
1998.275888484178
 20
118.780854210015
 10
1997.939164846295
 20
118.0655490238435
 10
1996.739238069562
 20
118.0655490238444
 10
1996.739238069562
 20
99.50423531100604
 10
2008.73923806956
 20
99.50423531100604
 97
        0
 92
        7
 72
     0
 73
     1
 93
       14
 10
2616.03682783767
 20
87.75810588917318
 10
2045.2723471266
 20
87.75810588917318
 10
2045.2723471266
 20
87.00216974447483
 10
2046.39025035329
 20
86.6262786410383
 10
2045.944864225026
 20
86.17979550529742
 10
2045.272347126601
 20
86.4059270595502
 10
2045.272347126601
 20
82.35770316026208
 10
2045.338389608521
 20
81.57077443715513
 10
2045.766270472815
 20
80.0899345700858
 10
2046.562500952137
 20
78.77094529179555
 10
2047.673130852499
 20
77.70217330238335
 10
2049.022815936048
 20
76.95803266590281
 10
2049.022815936046
 20
75.75810588917409
 10
2616.03682783767
 20
75.758105889175
 97
        0
 92
        7
 72
     0
 73
     1
 93
       12
 10
2042.572976963865
 20
87.31358096431028
 10
2041.900459865439
 20
87.53971251856581
 10
2041.523150469876
 20
87.75810588917318
 10
2021.221348106874
 20
87.75810588917318
 10
2021.221348106871
 20
75.75810588917318
 10
2038.82250815878
 20
75.75810588917227
 10
2038.822508158778
 20
76.95803266590553
 10
2039.537813344954
 20
77.29475630378999
 10
2040.774947153846
 20
78.21283981423073
 10
2041.733028223832
 20
79.42020799713953
 10
2042.346014072984
 20
80.83407520683465
 10
2042.572976963863
 20
82.35770316025844
 97
        0
 75
     0
 76
     1
 47
0.7357386453120385
 98
       10
 10
2002.102327098735
 20
610.5835247749149
 10
2003.526297494543
 20
496.727371729334
 10
2000.678356702926
 20
425.5672899500154
 10
2003.526297494543
 20
382.8712186837496
 10
2003.526297494543
 20
315.9807418111944
 10
2000.678356702926
 20
207.8173953079552
 10
2003.526297494543
 20
149.4661060502388
 10
2002.102327098735
 20
111.0396618894068
 10
2339.585358233162
 20
81.15240534341717
 10
2026.441427498313
 20
83.05041449995986
  0
LINE
  5
17B9
330
1F
100
AcDbEntity
  8
CETRIS
100
AcDbLine
 10
2008.739238069563
 20
636.8694676114158
 30
0.0
 11
1996.739238069565
 21
636.8694676114158
 31
0.0
  0
LINE
  5
17BA
330
1F
100
AcDbEntity
  8
CETRIS
100
AcDbLine
 10
2616.03682783767
 20
75.75810588917409
 30
0.0
 11
2616.03682783767
 21
87.75810588917408
 31
0.0
  0
HATCH
  5
17BB
330
1F
100
AcDbEntity
  8
PROFILY
100
AcDbHatch
 10
0.0
 20
0.0
 30
0.0
210
0.0
220
0.0
230
1.0
  2
SOLID
 70
     1
 71
     0
 91
        3
 92
        7
 72
     0
 73
     1
 93
        6
 10
2054.808776608259
 20
92.04853188611412
 10
2045.2723471266
 20
92.04853188611322
 10
2045.272347126601
 20
90.12275486663691
 10
2045.944864225024
 20
89.89677798512127
 10
2046.259152548304
 20
89.71486233107441
 10
2054.808776608253
 20
89.71486233107441
 97
        0
 92
        7
 72
     0
 73
     1
 93
       28
 10
2042.572976963863
 20
90.43354525623215
 10
2041.900459865423
 20
90.6595221378078
 10
2041.52280849449
 20
90.87811344982799
 10
2041.900459865433
 20
91.25576482267877
 10
2042.572976963863
 20
91.02978794115404
 10
2042.572976963862
 20
92.04853188611322
 10
2015.941207564987
 20
92.04853188611229
 10
2013.096468736914
 20
88.2656868865846
 10
2013.096468736907
 20
66.78989416276215
 10
1987.410626470548
 20
66.78989416276124
 10
1987.410626470548
 20
92.47573642912483
 10
2008.886419194359
 20
92.47573642912483
 10
2012.680868017389
 20
95.32920145329569
 10
2012.680868017385
 20
121.8160178289275
 10
2012.010920121549
 20
121.8160178289275
 10
2012.236897003075
 20
121.143500730502
 10
2011.859245630219
 20
120.765849359553
 10
2011.640654318193
 20
121.1435007305075
 10
2011.414677436623
 20
121.8160178289275
 10
2010.335594638859
 20
121.8160178289275
 10
2010.335594638859
 20
96.04431053384395
 10
2008.249753699845
 20
94.47573642912482
 10
1985.410626470548
 20
94.47573642912482
 10
1985.410626470549
 20
64.78989416276215
 10
2015.096468736912
 20
64.78989416276215
 10
2015.096468736914
 20
87.62902139206506
 10
2016.665042841623
 20
89.71486233107532
 10
2042.572976963865
 20
89.71486233107441
 97
        0
 92
        7
 72
     0
 73
     1
 93
        7
 10
2012.680868017389
 20
135.9544178696299
 10
2010.335594638859
 20
135.9544178696254
 10
2010.335594638859
 20
125.2418322489123
 10
2010.65931885348
 20
125.5655564654019
 10
2010.877910165512
 20
125.1879050900828
 10
2011.103887047031
 20
124.5153879916637
 10
2012.680868017387
 20
124.5153879916637
 97
        0
 75
     0
 76
     1
 47
0.1822534920281396
 98
        3
 10
2051.01237879724
 20
91.32155307952269
 10
2019.021947292713
 20
90.18977568701155
 10
2011.305137614632
 20
129.0337547798939
  0
LINE
  5
17BC
330
1F
100
AcDbEntity
  8
PROFILY
100
AcDbLine
 10
2016.665042841621
 20
89.71486233107441
 30
0.0
 11
2015.096468736912
 21
87.62902139206506
 31
0.0
  0
LINE
  5
17BD
330
1F
100
AcDbEntity
  8
PROFILY
100
AcDbLine
 10
2012.680868017385
 20
135.954417869629
 30
0.0
 11
2010.335594638858
 21
135.9544178696254
 31
0.0
  0
LINE
  5
17BE
330
1F
100
AcDbEntity
  8
PROFILY
100
AcDbLine
 10
2054.808776608257
 20
92.04853188611229
 30
0.0
 11
2054.808776608253
 21
89.71486233107441
 31
0.0
  0
LINE
  5
17BF
330
1F
100
AcDbEntity
  8
PROFILY
100
AcDbLine
 10
2054.808776608251
 20
89.71486233107441
 30
0.0
 11
2016.665042841621
 21
89.71486233107441
 31
0.0
  0
LINE
  5
17C0
330
1F
100
AcDbEntity
  8
PROFILY
100
AcDbLine
 10
2008.249753699841
 20
94.47573642912482
 30
0.0
 11
1985.410626470548
 21
94.47573642912482
 31
0.0
  0
LINE
  5
17C1
330
1F
100
AcDbEntity
  8
PROFILY
100
AcDbLine
 10
2008.886419194357
 20
92.47573642912483
 30
0.0
 11
1987.410626470548
 21
92.47573642912483
 31
0.0
  0
LINE
  5
17C2
330
1F
100
AcDbEntity
  8
PROFILY
100
AcDbLine
 10
2010.335594638862
 20
135.9544178696254
 30
0.0
 11
2010.335594638862
 21
96.04431053384395
 31
0.0
  0
LINE
  5
17C3
330
1F
100
AcDbEntity
  8
PROFILY
100
AcDbLine
 10
2012.680868017385
 20
95.32920145329569
 30
0.0
 11
2012.680868017387
 21
135.9544178696299
 31
0.0
  0
LINE
  5
17C4
330
1F
100
AcDbEntity
  8
PROFILY
100
AcDbLine
 10
2015.941207564988
 20
92.04853188611322
 30
0.0
 11
2054.808776608257
 21
92.04853188611322
 31
0.0
  0
LINE
  5
17C5
330
1F
100
AcDbEntity
  8
PROFILY
100
AcDbLine
 10
2015.096468736912
 20
64.78989416276215
 30
0.0
 11
2015.096468736912
 21
87.62902139206506
 31
0.0
  0
LINE
  5
17C6
330
1F
100
AcDbEntity
  8
PROFILY
100
AcDbLine
 10
2013.096468736908
 20
66.78989416276215
 30
0.0
 11
2013.096468736912
 21
88.26568688658097
 31
0.0
  0
LINE
  5
17C7
330
1F
100
AcDbEntity
  8
PROFILY
100
AcDbLine
 10
2008.249753699841
 20
94.47573642912482
 30
0.0
 11
2010.335594638862
 21
96.04431053384395
 31
0.0
  0
LINE
  5
17C8
330
1F
100
AcDbEntity
  8
PROFILY
100
AcDbLine
 10
2008.886419194357
 20
92.47573642912483
 30
0.0
 11
2012.680868017385
 21
95.32920145329569
 31
0.0
  0
LINE
  5
17C9
330
1F
100
AcDbEntity
  8
PROFILY
100
AcDbLine
 10
2013.096468736912
 20
88.26568688658097
 30
0.0
 11
2015.941207564988
 21
92.04853188611322
 31
0.0
  0
LINE
  5
17CA
330
1F
100
AcDbEntity
  8
PROFILY
100
AcDbLine
 10
1985.410626470548
 20
94.47573642912482
 30
0.0
 11
1985.410626470548
 21
64.78989416276215
 31
0.0
  0
LINE
  5
17CB
330
1F
100
AcDbEntity
  8
PROFILY
100
AcDbLine
 10
1985.410626470548
 20
64.78989416276215
 30
0.0
 11
2015.096468736912
 21
64.78989416276215
 31
0.0
  0
LINE
  5
17CC
330
1F
100
AcDbEntity
  8
PROFILY
100
AcDbLine
 10
1987.410626470548
 20
92.47573642912483
 30
0.0
 11
1987.410626470548
 21
66.78989416276215
 31
0.0
  0
LINE
  5
17CD
330
1F
100
AcDbEntity
  8
PROFILY
100
AcDbLine
 10
1987.410626470548
 20
66.78989416276215
 30
0.0
 11
2013.096468736908
 21
66.78989416276215
 31
0.0
  0
HATCH
  5
17CE
330
1F
100
AcDbEntity
  8
PROFILY
100
AcDbHatch
 10
0.0
 20
0.0
 30
0.0
210
0.0
220
0.0
230
1.0
  2
SOLID
 70
     1
 71
     0
 91
        4
 92
        7
 72
     0
 73
     1
 93
        6
 10
2197.052792473674
 20
-438.169820137338
 10
2194.707519095155
 20
-438.169820137338
 10
2194.707519095155
 20
-483.5783033086687
 10
2194.707519095151
 20
-487.5740819563994
 10
2197.05279247367
 20
-487.5740819563994
 10
2197.052792473674
 20
-484.2934123892169
 97
        0
 92
        7
 72
     0
 73
     1
 93
        4
 10
2197.052792473674
 20
-487.5740819563994
 10
2194.707519095155
 20
-487.5740819563994
 10
2194.707519095155
 20
-489.9077515114383
 10
2197.052792473674
 20
-489.9077515114383
 97
        0
 92
        7
 72
     0
 73
     1
 93
       10
 10
2197.05279247367
 20
-489.9077515114383
 10
2194.707519095151
 20
-489.9077515114383
 10
2194.707519095155
 20
-502.8327196797505
 10
2181.782550926837
 20
-502.8327196797505
 10
2181.782550926833
 20
-489.9077515114383
 10
2194.707519095155
 20
-489.9077515114383
 10
2194.707519095155
 20
-487.5740819563994
 10
2179.78255092684
 20
-487.5740819563994
 10
2179.782550926836
 20
-504.8327196797505
 10
2197.05279247367
 20
-504.8327196797505
 97
        0
 92
        7
 72
     0
 73
     1
 93
        6
 10
2246.445450469255
 20
-487.5740819564013
 10
2200.313132021281
 20
-487.5740819563994
 10
2197.052792473674
 20
-487.5740819563994
 10
2197.052792473674
 20
-489.9077515114383
 10
2201.03696729791
 20
-489.9077515114383
 10
2246.445450469251
 20
-489.9077515114383
 97
        0
 75
     0
 76
     1
 47
0.1559045317109681
 98
        4
 10
2195.986617668673
 20
-469.7797661670862
 10
2195.986617668673
 20
-489.4237301173794
 10
2196.610566537023
 20
-491.9182299519467
 10
2198.950434604379
 20
-488.6442359602312
  0
LINE
  5
17CF
330
1F
100
AcDbEntity
  8
PROFILY
100
AcDbLine
 10
2200.313132021281
 20
-487.5740819563993
 30
0.0
 11
2179.78255092684
 21
-487.5740819563993
 31
0.0
  0
LINE
  5
17D0
330
1F
100
AcDbEntity
  8
PROFILY
100
AcDbLine
 10
2194.707519095155
 20
-483.5783033086686
 30
0.0
 11
2194.707519095155
 21
-502.8327196797504
 31
0.0
  0
LINE
  5
17D1
330
1F
100
AcDbEntity
  8
PROFILY
100
AcDbLine
 10
2197.052792473674
 20
-484.2934123892169
 30
0.0
 11
2197.05279247367
 21
-504.8327196797504
 31
0.0
  0
LINE
  5
17D2
330
1F
100
AcDbEntity
  8
PROFILY
100
AcDbLine
 10
2201.03696729791
 20
-489.9077515114381
 30
0.0
 11
2181.782550926833
 21
-489.9077515114381
 31
0.0
  0
LINE
  5
17D3
330
1F
100
AcDbEntity
  8
PROFILY
100
AcDbLine
 10
2200.313132021281
 20
-487.5740819563993
 30
0.0
 11
2246.445450469255
 21
-487.5740819564002
 31
0.0
  0
LINE
  5
17D4
330
1F
100
AcDbEntity
  8
PROFILY
100
AcDbLine
 10
2246.445450469251
 20
-489.9077515114381
 30
0.0
 11
2201.03696729791
 21
-489.9077515114381
 31
0.0
  0
LINE
  5
17D5
330
1F
100
AcDbEntity
  8
PROFILY
100
AcDbLine
 10
2179.78255092684
 20
-487.5740819563993
 30
0.0
 11
2179.782550926836
 21
-504.8327196797504
 31
0.0
  0
LINE
  5
17D6
330
1F
100
AcDbEntity
  8
PROFILY
100
AcDbLine
 10
2179.782550926836
 20
-504.8327196797504
 30
0.0
 11
2197.05279247367
 21
-504.8327196797504
 31
0.0
  0
LINE
  5
17D7
330
1F
100
AcDbEntity
  8
PROFILY
100
AcDbLine
 10
2181.782550926833
 20
-489.9077515114381
 30
0.0
 11
2181.782550926837
 21
-502.8327196797504
 31
0.0
  0
LINE
  5
17D8
330
1F
100
AcDbEntity
  8
PROFILY
100
AcDbLine
 10
2181.782550926837
 20
-502.8327196797504
 30
0.0
 11
2194.707519095155
 21
-502.8327196797504
 31
0.0
  0
LINE
  5
17D9
330
1F
100
AcDbEntity
  8
PROFILY
100
AcDbLine
 10
2194.707519095155
 20
-438.1698201373378
 30
0.0
 11
2194.707519095155
 21
-483.5783033086686
 31
0.0
  0
LINE
  5
17DA
330
1F
100
AcDbEntity
  8
PROFILY
100
AcDbLine
 10
2197.052792473674
 20
-484.2934123892169
 30
0.0
 11
2197.052792473674
 21
-438.1698201373378
 31
0.0
  0
LINE
  5
17DB
330
1F
100
AcDbEntity
  8
PROFILY
100
AcDbLine
 10
2242.582581294977
 20
-487.5740819563993
 30
0.0
 11
2242.582581294977
 21
-489.9077515114381
 31
0.0
  0
LINE
  5
17DC
330
1F
100
AcDbEntity
  8
PROFILY
100
AcDbLine
 10
2197.05279247367
 20
-438.1698201373378
 30
0.0
 11
2194.707519095155
 21
-438.1698201373378
 31
0.0
  0
TEXT
  5
17DD
330
1F
100
AcDbEntity
  8
POPIS
100
AcDbText
 10
2033.69950153118
 20
-400.6310907540114
 30
0.0
 40
25.0
  1
- profil PROTECTOR 9402 (3506)
 41
0.7
  7
SIMPLEX7
100
AcDbText
  0
LINE
  5
17DE
330
1F
100
AcDbEntity
  8
PROFILY
100
AcDbLine
 10
2085.146079621477
 20
-438.1698201373378
 30
0.0
 11
2082.800806242961
 21
-438.1698201373378
 31
0.0
  0
LINE
  5
17DF
330
1F
100
AcDbEntity
  8
PROFILY
100
AcDbLine
 10
2134.538737617062
 20
-487.5740819563993
 30
0.0
 11
2134.538737617062
 21
-489.9077515114381
 31
0.0
  0
HATCH
  5
17E0
330
1F
100
AcDbEntity
  8
PROFILY
100
AcDbHatch
 10
0.0
 20
0.0
 30
0.0
210
0.0
220
0.0
230
1.0
  2
SOLID
 70
     1
 71
     0
 91
        1
 92
        7
 72
     0
 73
     1
 93
       18
 10
2088.406419169088
 20
-487.5740819563994
 10
2085.561680341008
 20
-491.3569269559326
 10
2085.561680341008
 20
-502.8327196797505
 10
2069.875838074644
 20
-502.8327196797505
 10
2069.87583807464
 20
-487.1468774133878
 10
2081.351630798457
 20
-487.1468774133878
 10
2085.146079621481
 20
-484.2934123892169
 10
2085.146079621481
 20
-438.169820137338
 10
2082.800806242961
 20
-438.169820137338
 10
2082.800806242961
 20
-483.5783033086697
 10
2080.714965303938
 20
-485.1468774133878
 10
2067.875838074644
 20
-485.1468774133878
 10
2067.875838074644
 20
-504.8327196797505
 10
2087.561680341012
 20
-504.8327196797505
 10
2087.561680341008
 20
-491.9935924504458
 10
2089.130254445717
 20
-489.9077515114383
 10
2134.538737617058
 20
-489.9077515114383
 10
2134.538737617062
 20
-487.5740819563994
 97
        0
 75
     0
 76
     1
 47
0.1846483013704088
 98
        1
 10
2093.801770097339
 20
-488.4799621191501
  0
LINE
  5
17E1
330
1F
100
AcDbEntity
  8
PROFILY
100
AcDbLine
 10
2085.146079621481
 20
-484.2934123892169
 30
0.0
 11
2085.146079621481
 21
-438.1698201373378
 31
0.0
  0
LINE
  5
17E2
330
1F
100
AcDbEntity
  8
PROFILY
100
AcDbLine
 10
2082.800806242961
 20
-438.1698201373378
 30
0.0
 11
2082.800806242961
 21
-483.5783033086686
 31
0.0
  0
LINE
  5
17E3
330
1F
100
AcDbEntity
  8
PROFILY
100
AcDbLine
 10
2087.561680341008
 20
-491.9935924504475
 30
0.0
 11
2089.130254445717
 21
-489.9077515114381
 31
0.0
  0
LINE
  5
17E4
330
1F
100
AcDbEntity
  8
PROFILY
100
AcDbLine
 10
2085.561680341012
 20
-491.3569269559316
 30
0.0
 11
2088.406419169088
 21
-487.5740819563993
 31
0.0
  0
LINE
  5
17E5
330
1F
100
AcDbEntity
  8
PROFILY
100
AcDbLine
 10
2081.351630798457
 20
-487.1468774133878
 30
0.0
 11
2085.146079621481
 21
-484.2934123892169
 31
0.0
  0
LINE
  5
17E6
330
1F
100
AcDbEntity
  8
PROFILY
100
AcDbLine
 10
2080.714965303941
 20
-485.1468774133877
 30
0.0
 11
2082.800806242961
 21
-483.5783033086686
 31
0.0
  0
LINE
  5
17E7
330
1F
100
AcDbEntity
  8
PROFILY
100
AcDbLine
 10
2085.561680341008
 20
-502.8327196797504
 30
0.0
 11
2085.561680341012
 21
-491.3569269559316
 31
0.0
  0
LINE
  5
17E8
330
1F
100
AcDbEntity
  8
PROFILY
100
AcDbLine
 10
2069.875838074644
 20
-502.8327196797504
 30
0.0
 11
2085.561680341008
 21
-502.8327196797504
 31
0.0
  0
LINE
  5
17E9
330
1F
100
AcDbEntity
  8
PROFILY
100
AcDbLine
 10
2069.875838074644
 20
-487.1468774133878
 30
0.0
 11
2069.875838074644
 21
-502.8327196797504
 31
0.0
  0
LINE
  5
17EA
330
1F
100
AcDbEntity
  8
PROFILY
100
AcDbLine
 10
2081.351630798457
 20
-487.1468774133878
 30
0.0
 11
2069.875838074644
 21
-487.1468774133878
 31
0.0
  0
LINE
  5
17EB
330
1F
100
AcDbEntity
  8
PROFILY
100
AcDbLine
 10
2087.561680341008
 20
-504.8327196797504
 30
0.0
 11
2087.561680341008
 21
-491.9935924504475
 31
0.0
  0
LINE
  5
17EC
330
1F
100
AcDbEntity
  8
PROFILY
100
AcDbLine
 10
2067.875838074644
 20
-504.8327196797504
 30
0.0
 11
2087.561680341008
 21
-504.8327196797504
 31
0.0
  0
LINE
  5
17ED
330
1F
100
AcDbEntity
  8
PROFILY
100
AcDbLine
 10
2067.875838074644
 20
-485.1468774133877
 30
0.0
 11
2067.875838074644
 21
-504.8327196797504
 31
0.0
  0
LINE
  5
17EE
330
1F
100
AcDbEntity
  8
PROFILY
100
AcDbLine
 10
2080.714965303941
 20
-485.1468774133877
 30
0.0
 11
2067.875838074644
 21
-485.1468774133877
 31
0.0
  0
LINE
  5
17EF
330
1F
100
AcDbEntity
  8
PROFILY
100
AcDbLine
 10
2134.538737617058
 20
-489.9077515114381
 30
0.0
 11
2089.130254445717
 21
-489.9077515114381
 31
0.0
  0
LINE
  5
17F0
330
1F
100
AcDbEntity
  8
PROFILY
100
AcDbLine
 10
2088.406419169088
 20
-487.5740819563993
 30
0.0
 11
2134.538737617062
 21
-487.5740819564002
 31
0.0
  0
HATCH
  5
17F1
330
1F
100
AcDbEntity
  8
PROFILY
100
AcDbHatch
 10
0.0
 20
0.0
 30
0.0
210
0.0
220
0.0
230
1.0
  2
SOLID
 70
     1
 71
     0
 91
        1
 92
        7
 72
     0
 73
     1
 93
        6
 10
2356.937790309257
 20
-495.0664290827004
 10
2356.93779030926
 20
-492.7327595276598
 10
2298.789354458611
 20
-492.7327595276598
 10
2298.789354458607
 20
-434.8178034346289
 10
2296.44408108008
 20
-434.8178034346289
 10
2296.444081080088
 20
-495.0664290826986
 97
        0
 75
     0
 76
     1
 47
0.6102241244330852
 98
        1
 10
2311.720325631988
 20
-494.0575325132755
  0
LINE
  5
17F2
330
1F
100
AcDbEntity
  8
PROFILY
100
AcDbLine
 10
2298.789354458607
 20
-492.7327595276596
 30
0.0
 11
2356.937790309257
 21
-492.7327595276596
 31
0.0
  0
LINE
  5
17F3
330
1F
100
AcDbEntity
  8
PROFILY
100
AcDbLine
 10
2298.789354458607
 20
-492.7327595276596
 30
0.0
 11
2298.789354458607
 21
-434.8178034346288
 31
0.0
  0
LINE
  5
17F4
330
1F
100
AcDbEntity
  8
PROFILY
100
AcDbLine
 10
2296.444081080084
 20
-434.8178034346288
 30
0.0
 11
2296.444081080084
 21
-495.0664290826985
 31
0.0
  0
LINE
  5
17F5
330
1F
100
AcDbEntity
  8
PROFILY
100
AcDbLine
 10
2356.937790309257
 20
-492.7327595276596
 30
0.0
 11
2356.937790309257
 21
-495.0664290826994
 31
0.0
  0
LINE
  5
17F6
330
1F
100
AcDbEntity
  8
PROFILY
100
AcDbLine
 10
2298.789354458607
 20
-434.8178034346288
 30
0.0
 11
2296.444081080088
 21
-434.8178034346288
 31
0.0
  0
LINE
  5
17F7
330
1F
100
AcDbEntity
  8
SPOJOVACÍ
  6
Continuous
100
AcDbLine
 10
2045.2723471266
 20
90.09583560549106
 30
0.0
 11
2045.2723471266
 21
92.62405341836018
 31
0.0
  0
LINE
  5
17F8
330
1F
100
AcDbEntity
  8
SPOJOVACÍ
  6
Continuous
100
AcDbLine
 10
2046.322515600339
 20
92.79799629232764
 30
0.0
 11
2045.944864225028
 21
93.0165876043469
 31
0.0
  0
LINE
  5
17F9
330
1F
100
AcDbEntity
  8
SPOJOVACÍ
  6
Continuous
100
AcDbLine
 10
2046.322515600339
 20
92.79799629232764
 30
0.0
 11
2045.944864225028
 21
92.42034491919946
 31
0.0
  0
LINE
  5
17FA
330
1F
100
AcDbEntity
  8
SPOJOVACÍ
  6
Continuous
100
AcDbLine
 10
2046.322515600339
 20
89.67818667308927
 30
0.0
 11
2041.52280849449
 21
90.87811344982799
 31
0.0
  0
LINE
  5
17FB
330
1F
100
AcDbEntity
  8
SPOJOVACÍ
  6
Continuous
100
AcDbLine
 10
2046.322515600339
 20
89.67818667308927
 30
0.0
 11
2045.944864225028
 21
89.89677798511582
 31
0.0
  0
LINE
  5
17FC
330
1F
100
AcDbEntity
  8
SPOJOVACÍ
  6
Continuous
100
AcDbLine
 10
2041.52280849449
 20
90.87811344982799
 30
0.0
 11
2041.900459865436
 21
91.25576482267968
 31
0.0
  0
LINE
  5
17FD
330
1F
100
AcDbEntity
  8
SPOJOVACÍ
  6
Continuous
100
AcDbLine
 10
2041.52280849449
 20
90.87811344982799
 30
0.0
 11
2041.900459865436
 21
90.65952213780144
 31
0.0
  0
LINE
  5
17FE
330
1F
100
AcDbEntity
  8
SPOJOVACÍ
  6
Continuous
100
AcDbLine
 10
2045.944864225028
 20
89.89677798511582
 30
0.0
 11
2041.900459865436
 21
91.25576482267968
 31
0.0
  0
LINE
  5
17FF
330
1F
100
AcDbEntity
  8
SPOJOVACÍ
  6
Continuous
100
AcDbLine
 10
2045.2723471266
 20
86.99090879911853
 30
0.0
 11
2045.2723471266
 21
89.50982485414749
 31
0.0
  0
LINE
  5
1800
330
1F
100
AcDbEntity
  8
SPOJOVACÍ
  6
Continuous
100
AcDbLine
 10
2042.572976963863
 20
87.9043414305055
 30
0.0
 11
2042.572976963863
 21
90.42325748553446
 31
0.0
  0
LINE
  5
1801
330
1F
100
AcDbEntity
  8
SPOJOVACÍ
  6
Continuous
100
AcDbLine
 10
2046.322515600339
 20
86.55837705412739
 30
0.0
 11
2041.52280849449
 21
87.75830383058963
 31
0.0
  0
LINE
  5
1802
330
1F
100
AcDbEntity
  8
SPOJOVACÍ
  6
Continuous
100
AcDbLine
 10
2046.322515600339
 20
86.55837705412739
 30
0.0
 11
2045.944864225028
 21
86.77603819017566
 31
0.0
  0
LINE
  5
1803
330
1F
100
AcDbEntity
  8
SPOJOVACÍ
  6
Continuous
100
AcDbLine
 10
2046.322515600339
 20
86.55837705412739
 30
0.0
 11
2045.944864225028
 21
86.17979550529742
 31
0.0
  0
LINE
  5
1804
330
1F
100
AcDbEntity
  8
SPOJOVACÍ
  6
Continuous
100
AcDbLine
 10
2041.52280849449
 20
87.75830383058963
 30
0.0
 11
2041.900459865436
 21
88.1359552037178
 31
0.0
  0
LINE
  5
1805
330
1F
100
AcDbEntity
  8
SPOJOVACÍ
  6
Continuous
100
AcDbLine
 10
2041.52280849449
 20
87.75830383058963
 30
0.0
 11
2041.900459865436
 21
87.53971251856308
 31
0.0
  0
LINE
  5
1806
330
1F
100
AcDbEntity
  8
SPOJOVACÍ
  6
Continuous
100
AcDbLine
 10
2045.944864225028
 20
86.77603819017566
 30
0.0
 11
2041.900459865436
 21
88.1359552037178
 31
0.0
  0
LINE
  5
1807
330
1F
100
AcDbEntity
  8
SPOJOVACÍ
  6
Continuous
100
AcDbLine
 10
2045.944864225028
 20
86.17979550529742
 30
0.0
 11
2041.900459865436
 21
87.53971251856308
 31
0.0
  0
LINE
  5
1808
330
1F
100
AcDbEntity
  8
SPOJOVACÍ
  6
Continuous
100
AcDbLine
 10
2046.322515600339
 20
89.67818667308927
 30
0.0
 11
2045.944864225028
 21
89.3005352999611
 31
0.0
  0
LINE
  5
1809
330
1F
100
AcDbEntity
  8
SPOJOVACÍ
  6
Continuous
100
AcDbLine
 10
2045.944864225028
 20
89.3005352999611
 30
0.0
 11
2041.900459865436
 21
90.65952213780144
 31
0.0
  0
LINE
  5
180A
330
1F
100
AcDbEntity
  8
SPOJOVACÍ
  6
Continuous
100
AcDbLine
 10
2045.2723471266
 20
99.47572833028278
 30
0.0
 11
2045.2723471266
 21
100.7230940721714
 31
0.0
  0
LINE
  5
180B
330
1F
100
AcDbEntity
  8
SPOJOVACÍ
  6
Continuous
100
AcDbLine
 10
2042.572976963863
 20
97.2637702876749
 30
0.0
 11
2042.572976963863
 21
99.78268634270387
 31
0.0
  0
LINE
  5
180C
330
1F
100
AcDbEntity
  8
SPOJOVACÍ
  6
Continuous
100
AcDbLine
 10
2042.572976963863
 20
100.3863704342878
 30
0.0
 11
2042.572976963863
 21
100.7230940721714
 31
0.0
  0
LINE
  5
180D
330
1F
100
AcDbEntity
  8
SPOJOVACÍ
  6
Continuous
100
AcDbLine
 10
2045.2723471266
 20
100.7230940721714
 30
0.0
 11
2045.122588823877
 21
101.9202303215282
 31
0.0
  0
LINE
  5
180E
330
1F
100
AcDbEntity
  8
SPOJOVACÍ
  6
Continuous
100
AcDbLine
 10
2043.922662047414
 20
111.5233652371247
 30
0.0
 11
2043.568265066285
 21
108.6872592358562
 31
0.0
  0
LINE
  5
180F
330
1F
100
AcDbEntity
  8
SPOJOVACÍ
  6
Continuous
100
AcDbLine
 10
2045.045384231351
 20
102.5406575773816
 30
0.0
 11
2044.755169381831
 21
104.8623763634462
 31
0.0
  0
LINE
  5
1810
330
1F
100
AcDbEntity
  8
SPOJOVACÍ
  6
Continuous
100
AcDbLine
 10
2044.676104438993
 20
105.4930355531108
 30
0.0
 11
2044.385889593839
 21
107.8138241634663
 31
0.0
  0
LINE
  5
1811
330
1F
100
AcDbEntity
  8
SPOJOVACÍ
  6
Continuous
100
AcDbLine
 10
2044.308685001313
 20
108.4342514193198
 30
0.0
 11
2043.922662047414
 21
111.5233652371247
 31
0.0
  0
LINE
  5
1812
330
1F
100
AcDbEntity
  8
SPOJOVACÍ
  6
Continuous
100
AcDbLine
 10
2043.496641529062
 20
108.1179916487893
 30
0.0
 11
2043.228750900751
 21
105.9730062638049
 31
0.0
  0
LINE
  5
1813
330
1F
100
AcDbEntity
  8
SPOJOVACÍ
  6
Continuous
100
AcDbLine
 10
2043.157127367893
 20
105.4009481493561
 30
0.0
 11
2042.890166912555
 21
103.2643343465027
 31
0.0
  0
LINE
  5
1814
330
1F
100
AcDbEntity
  8
SPOJOVACÍ
  6
Continuous
100
AcDbLine
 10
2042.818543375331
 20
102.6941365834576
 30
0.0
 11
2042.572976963863
 21
100.7230940721714
 31
0.0
  0
LINE
  5
1815
330
1F
100
AcDbEntity
  8
SPOJOVACÍ
  6
Continuous
100
AcDbLine
 10
2046.068577605918
 20
102.1155672385506
 30
0.0
 11
2045.689996057634
 21
102.3341585505771
 31
0.0
  0
LINE
  5
1816
330
1F
100
AcDbEntity
  8
SPOJOVACÍ
  6
Continuous
100
AcDbLine
 10
2046.068577605918
 20
102.1155672385506
 30
0.0
 11
2045.689996057634
 21
101.7379158654224
 31
0.0
  0
LINE
  5
1817
330
1F
100
AcDbEntity
  8
SPOJOVACÍ
  6
Continuous
100
AcDbLine
 10
2041.943247953175
 20
103.0885311208552
 30
0.0
 11
2042.32089932412
 21
103.4671126699616
 31
0.0
  0
LINE
  5
1818
330
1F
100
AcDbEntity
  8
SPOJOVACÍ
  6
Continuous
100
AcDbLine
 10
2041.943247953175
 20
103.0885311208552
 30
0.0
 11
2042.32089932412
 21
102.8708699848069
 31
0.0
  0
LINE
  5
1819
330
1F
100
AcDbEntity
  8
SPOJOVACÍ
  6
Continuous
100
AcDbLine
 10
2045.689996057634
 20
102.3341585505771
 30
0.0
 11
2042.32089932412
 21
103.4671126699616
 31
0.0
  0
LINE
  5
181A
330
1F
100
AcDbEntity
  8
SPOJOVACÍ
  6
Continuous
100
AcDbLine
 10
2045.689996057634
 20
101.7379158654224
 30
0.0
 11
2042.32089932412
 21
102.8708699848069
 31
0.0
  0
LINE
  5
181B
330
1F
100
AcDbEntity
  8
SPOJOVACÍ
  6
Continuous
100
AcDbLine
 10
2046.068577605918
 20
102.1155672385506
 30
0.0
 11
2041.943247953175
 21
103.0885311208552
 31
0.0
  0
LINE
  5
181C
330
1F
100
AcDbEntity
  8
SPOJOVACÍ
  6
Continuous
100
AcDbLine
 10
2045.503960899812
 20
105.1302669928485
 30
0.0
 11
2045.126309524501
 21
105.3479281288967
 31
0.0
  0
LINE
  5
181D
330
1F
100
AcDbEntity
  8
SPOJOVACÍ
  6
Continuous
100
AcDbLine
 10
2045.503960899812
 20
105.1302669928485
 30
0.0
 11
2045.126309524501
 21
104.751685443742
 31
0.0
  0
LINE
  5
181E
330
1F
100
AcDbEntity
  8
SPOJOVACÍ
  6
Continuous
100
AcDbLine
 10
2042.387871983381
 20
105.7637167096185
 30
0.0
 11
2042.765523354326
 21
106.1422982584484
 31
0.0
  0
LINE
  5
181F
330
1F
100
AcDbEntity
  8
SPOJOVACÍ
  6
Continuous
100
AcDbLine
 10
2042.387871983381
 20
105.7637167096185
 30
0.0
 11
2042.765523354326
 21
105.5460555735702
 31
0.0
  0
LINE
  5
1820
330
1F
100
AcDbEntity
  8
SPOJOVACÍ
  6
Continuous
100
AcDbLine
 10
2045.126309524501
 20
105.3479281288967
 30
0.0
 11
2042.765523354326
 21
106.1422982584484
 31
0.0
  0
LINE
  5
1821
330
1F
100
AcDbEntity
  8
SPOJOVACÍ
  6
Continuous
100
AcDbLine
 10
2045.126309524501
 20
104.751685443742
 30
0.0
 11
2042.765523354326
 21
105.5460555735702
 31
0.0
  0
LINE
  5
1822
330
1F
100
AcDbEntity
  8
SPOJOVACÍ
  6
Continuous
100
AcDbLine
 10
2045.503960899812
 20
105.1302669928485
 30
0.0
 11
2042.387871983381
 21
105.7637167096185
 31
0.0
  0
LINE
  5
1823
330
1F
100
AcDbEntity
  8
SPOJOVACÍ
  6
Continuous
100
AcDbLine
 10
2044.93934418934
 20
108.1440365711681
 30
0.0
 11
2044.561692818395
 21
108.3626278831874
 31
0.0
  0
LINE
  5
1824
330
1F
100
AcDbEntity
  8
SPOJOVACÍ
  6
Continuous
100
AcDbLine
 10
2044.93934418934
 20
108.1440365711681
 30
0.0
 11
2044.561692818395
 21
107.7663851980399
 31
0.0
  0
LINE
  5
1825
330
1F
100
AcDbEntity
  8
SPOJOVACÍ
  6
Continuous
100
AcDbLine
 10
2042.785057047884
 20
108.4547152869421
 30
0.0
 11
2043.162708418829
 21
108.833296835772
 31
0.0
  0
LINE
  5
1826
330
1F
100
AcDbEntity
  8
SPOJOVACÍ
  6
Continuous
100
AcDbLine
 10
2042.785057047884
 20
108.4547152869421
 30
0.0
 11
2043.162708418829
 21
108.2370541506246
 31
0.0
  0
LINE
  5
1827
330
1F
100
AcDbEntity
  8
SPOJOVACÍ
  6
Continuous
100
AcDbLine
 10
2044.561692818395
 20
108.3626278831874
 30
0.0
 11
2043.162708418829
 21
108.833296835772
 31
0.0
  0
LINE
  5
1828
330
1F
100
AcDbEntity
  8
SPOJOVACÍ
  6
Continuous
100
AcDbLine
 10
2044.561692818395
 20
107.7663851980399
 30
0.0
 11
2043.162708418829
 21
108.2370541506246
 31
0.0
  0
LINE
  5
1829
330
1F
100
AcDbEntity
  8
SPOJOVACÍ
  6
Continuous
100
AcDbLine
 10
2044.93934418934
 20
108.1440365711681
 30
0.0
 11
2042.785057047884
 21
108.4547152869421
 31
0.0
  0
LINE
  5
182A
330
1F
100
AcDbEntity
  8
SPOJOVACÍ
  6
Continuous
100
AcDbLine
 10
2046.322515600339
 20
99.03854570623696
 30
0.0
 11
2041.52280849449
 21
100.2384724826991
 31
0.0
  0
LINE
  5
182B
330
1F
100
AcDbEntity
  8
SPOJOVACÍ
  6
Continuous
100
AcDbLine
 10
2041.52280849449
 20
100.2384724826991
 30
0.0
 11
2041.900459865436
 21
100.6161238558273
 31
0.0
  0
LINE
  5
182C
330
1F
100
AcDbEntity
  8
SPOJOVACÍ
  6
Continuous
100
AcDbLine
 10
2041.52280849449
 20
100.2384724826991
 30
0.0
 11
2041.900459865436
 21
100.0198811706726
 31
0.0
  0
LINE
  5
182D
330
1F
100
AcDbEntity
  8
SPOJOVACÍ
  6
Continuous
100
AcDbLine
 10
2045.944864225028
 20
99.25620684228523
 30
0.0
 11
2041.900459865436
 21
100.6161238558273
 31
0.0
  0
LINE
  5
182E
330
1F
100
AcDbEntity
  8
SPOJOVACÍ
  6
Continuous
100
AcDbLine
 10
2045.944864225028
 20
98.6599641571305
 30
0.0
 11
2041.900459865436
 21
100.0198811706726
 31
0.0
  0
LINE
  5
182F
330
1F
100
AcDbEntity
  8
SPOJOVACÍ
  6
Continuous
100
AcDbLine
 10
2045.2723471266
 20
93.22866768564598
 30
0.0
 11
2045.2723471266
 21
95.75688549851509
 31
0.0
  0
LINE
  5
1830
330
1F
100
AcDbEntity
  8
SPOJOVACÍ
  6
Continuous
100
AcDbLine
 10
2042.572976963863
 20
91.01950017068919
 30
0.0
 11
2042.572976963863
 21
93.5477179835583
 31
0.0
  0
LINE
  5
1831
330
1F
100
AcDbEntity
  8
SPOJOVACÍ
  6
Continuous
100
AcDbLine
 10
2042.572976963863
 20
94.14210031703294
 30
0.0
 11
2042.572976963863
 21
96.66287672374199
 31
0.0
  0
LINE
  5
1832
330
1F
100
AcDbEntity
  8
SPOJOVACÍ
  6
Continuous
100
AcDbLine
 10
2045.2723471266
 20
96.36149976580089
 30
0.0
 11
2045.2723471266
 21
98.87948564512806
 31
0.0
  0
LINE
  5
1833
330
1F
100
AcDbEntity
  8
SPOJOVACÍ
  6
Continuous
100
AcDbLine
 10
2046.322515600339
 20
92.79799629232764
 30
0.0
 11
2041.52280849449
 21
93.99792306878987
 31
0.0
  0
LINE
  5
1834
330
1F
100
AcDbEntity
  8
SPOJOVACÍ
  6
Continuous
100
AcDbLine
 10
2041.52280849449
 20
93.99792306878987
 30
0.0
 11
2041.900459865436
 21
94.37650461761984
 31
0.0
  0
LINE
  5
1835
330
1F
100
AcDbEntity
  8
SPOJOVACÍ
  6
Continuous
100
AcDbLine
 10
2041.52280849449
 20
93.99792306878987
 30
0.0
 11
2041.900459865436
 21
93.7802619324724
 31
0.0
  0
LINE
  5
1836
330
1F
100
AcDbEntity
  8
SPOJOVACÍ
  6
Continuous
100
AcDbLine
 10
2045.944864225028
 20
93.01658760435419
 30
0.0
 11
2041.900459865436
 21
94.37650461761984
 31
0.0
  0
LINE
  5
1837
330
1F
100
AcDbEntity
  8
SPOJOVACÍ
  6
Continuous
100
AcDbLine
 10
2045.944864225028
 20
92.42034491919946
 30
0.0
 11
2041.900459865436
 21
93.7802619324724
 31
0.0
  0
LINE
  5
1838
330
1F
100
AcDbEntity
  8
SPOJOVACÍ
  6
Continuous
100
AcDbLine
 10
2046.322515600339
 20
95.9178059112968
 30
0.0
 11
2041.52280849449
 21
97.11773268775903
 31
0.0
  0
LINE
  5
1839
330
1F
100
AcDbEntity
  8
SPOJOVACÍ
  6
Continuous
100
AcDbLine
 10
2046.322515600339
 20
95.9178059112968
 30
0.0
 11
2045.944864225028
 21
96.13639722331607
 31
0.0
  0
LINE
  5
183A
330
1F
100
AcDbEntity
  8
SPOJOVACÍ
  6
Continuous
100
AcDbLine
 10
2046.322515600339
 20
95.9178059112968
 30
0.0
 11
2045.944864225028
 21
95.54015453816862
 31
0.0
  0
LINE
  5
183B
330
1F
100
AcDbEntity
  8
SPOJOVACÍ
  6
Continuous
100
AcDbLine
 10
2041.52280849449
 20
97.11773268775903
 30
0.0
 11
2041.900459865436
 21
97.496314236589
 31
0.0
  0
LINE
  5
183C
330
1F
100
AcDbEntity
  8
SPOJOVACÍ
  6
Continuous
100
AcDbLine
 10
2041.52280849449
 20
97.11773268775903
 30
0.0
 11
2041.900459865436
 21
96.90007155171077
 31
0.0
  0
LINE
  5
183D
330
1F
100
AcDbEntity
  8
SPOJOVACÍ
  6
Continuous
100
AcDbLine
 10
2045.944864225028
 20
96.13639722331607
 30
0.0
 11
2041.900459865436
 21
97.496314236589
 31
0.0
  0
LINE
  5
183E
330
1F
100
AcDbEntity
  8
SPOJOVACÍ
  6
Continuous
100
AcDbLine
 10
2045.944864225028
 20
95.54015453816862
 30
0.0
 11
2041.900459865436
 21
96.90007155171077
 31
0.0
  0
LINE
  5
183F
330
1F
100
AcDbEntity
  8
SPOJOVACÍ
  6
Continuous
100
AcDbLine
 10
2046.322515600339
 20
99.03854570623696
 30
0.0
 11
2045.944864225028
 21
99.25620684228523
 31
0.0
  0
LINE
  5
1840
330
1F
100
AcDbEntity
  8
SPOJOVACÍ
  6
Continuous
100
AcDbLine
 10
2046.322515600339
 20
99.03854570623696
 30
0.0
 11
2045.944864225028
 21
98.6599641571305
 31
0.0
  0
LINE
  5
1841
330
1F
100
AcDbEntity
  8
SPOJOVACÍ
  6
Continuous
100
AcDbLine
 10
2049.022815936048
 20
75.75810588917409
 30
0.0
 11
2038.82250815878
 21
75.75810588917409
 31
0.0
  0
LINE
  5
1842
330
1F
100
AcDbEntity
  8
SPOJOVACÍ
  6
Continuous
100
AcDbLine
 10
2049.022815936048
 20
75.75810588917409
 30
0.0
 11
2049.022815936048
 21
76.95803266590553
 31
0.0
  0
LINE
  5
1843
330
1F
100
AcDbEntity
  8
SPOJOVACÍ
  6
Continuous
100
AcDbLine
 10
2049.022815936048
 20
76.95803266590553
 30
0.0
 11
2047.673130852497
 21
77.70217330237972
 31
0.0
  0
LINE
  5
1844
330
1F
100
AcDbEntity
  8
SPOJOVACÍ
  6
Continuous
100
AcDbLine
 10
2041.733028223832
 20
79.42020799712953
 30
0.0
 11
2040.774947153848
 21
78.21283981423073
 31
0.0
  0
LINE
  5
1845
330
1F
100
AcDbEntity
  8
SPOJOVACÍ
  6
Continuous
100
AcDbLine
 10
2042.34601407298
 20
80.83407520683284
 30
0.0
 11
2041.733028223832
 21
79.42020799712953
 31
0.0
  0
LINE
  5
1846
330
1F
100
AcDbEntity
  8
SPOJOVACÍ
  6
Continuous
100
AcDbLine
 10
2042.572976963863
 20
82.35770316026208
 30
0.0
 11
2042.34601407298
 21
80.83407520683284
 31
0.0
  0
LINE
  5
1847
330
1F
100
AcDbEntity
  8
SPOJOVACÍ
  6
Continuous
100
AcDbLine
 10
2038.82250815878
 20
75.75810588917409
 30
0.0
 11
2038.82250815878
 21
76.95803266590553
 31
0.0
  0
LINE
  5
1848
330
1F
100
AcDbEntity
  8
SPOJOVACÍ
  6
Continuous
100
AcDbLine
 10
2049.022815936048
 20
76.95803266590553
 30
0.0
 11
2038.82250815878
 21
76.95803266590553
 31
0.0
  0
LINE
  5
1849
330
1F
100
AcDbEntity
  8
SPOJOVACÍ
  6
Continuous
100
AcDbLine
 10
2039.537813344948
 20
77.29475630378908
 30
0.0
 11
2038.82250815878
 21
76.95803266590553
 31
0.0
  0
LINE
  5
184A
330
1F
100
AcDbEntity
  8
SPOJOVACÍ
  6
Continuous
100
AcDbLine
 10
2040.774947153848
 20
78.21283981423073
 30
0.0
 11
2039.537813344948
 21
77.29475630378908
 31
0.0
  0
LINE
  5
184B
330
1F
100
AcDbEntity
  8
SPOJOVACÍ
  6
Continuous
100
AcDbLine
 10
2045.338389608521
 20
81.57077443713967
 30
0.0
 11
2045.2723471266
 21
82.35770316026208
 31
0.0
  0
LINE
  5
184C
330
1F
100
AcDbEntity
  8
SPOJOVACÍ
  6
Continuous
100
AcDbLine
 10
2045.766270472821
 20
80.08993457008944
 30
0.0
 11
2045.338389608521
 21
81.57077443713967
 31
0.0
  0
LINE
  5
184D
330
1F
100
AcDbEntity
  8
SPOJOVACÍ
  6
Continuous
100
AcDbLine
 10
2046.562500952139
 20
78.77094529179192
 30
0.0
 11
2045.766270472821
 21
80.08993457008944
 31
0.0
  0
LINE
  5
184E
330
1F
100
AcDbEntity
  8
SPOJOVACÍ
  6
Continuous
100
AcDbLine
 10
2047.673130852497
 20
77.70217330237972
 30
0.0
 11
2046.562500952139
 21
78.77094529179192
 31
0.0
  0
LINE
  5
184F
330
1F
100
AcDbEntity
  8
SPOJOVACÍ
  6
Continuous
100
AcDbLine
 10
2042.572976963863
 20
82.35770316026208
 30
0.0
 11
2042.572976963863
 21
87.30065733919071
 31
0.0
  0
LINE
  5
1850
330
1F
100
AcDbEntity
  8
SPOJOVACÍ
  6
Continuous
100
AcDbLine
 10
2045.2723471266
 20
82.35770316026208
 30
0.0
 11
2045.2723471266
 21
86.39559628994209
 31
0.0
  0
LINE
  5
1851
330
1F
100
AcDbEntity
  8
CETRIS
100
AcDbLine
 10
2008.739238069562
 20
99.50423531100604
 30
0.0
 11
2008.739238069563
 21
636.8694676114158
 31
0.0
  0
LINE
  5
1852
330
1F
100
AcDbEntity
  8
CETRIS
100
AcDbLine
 10
1996.739238069563
 20
99.50423531100604
 30
0.0
 11
1996.739238069563
 21
636.8694676114158
 31
0.0
  0
LINE
  5
1853
330
1F
100
AcDbEntity
  8
CETRIS
100
AcDbLine
 10
2021.221348106871
 20
87.75810588917318
 30
0.0
 11
2616.03682783767
 21
87.75810588917408
 31
0.0
  0
LINE
  5
1854
330
1F
100
AcDbEntity
  8
CETRIS
100
AcDbLine
 10
2021.221348106871
 20
75.75810588917409
 30
0.0
 11
2616.03682783767
 21
75.75810588917409
 31
0.0
  0
LINE
  5
1855
330
1F
100
AcDbEntity
  8
SPOJOVACÍ
  6
Continuous
100
AcDbLine
 10
2011.076967785882
 20
124.5153879916637
 30
0.0
 11
2013.605185598752
 21
124.5153879916637
 31
0.0
  0
LINE
  5
1856
330
1F
100
AcDbEntity
  8
SPOJOVACÍ
  6
Continuous
100
AcDbLine
 10
2013.779128472719
 20
125.5655564654029
 30
0.0
 11
2013.997719784738
 21
125.1879050900919
 31
0.0
  0
LINE
  5
1857
330
1F
100
AcDbEntity
  8
SPOJOVACÍ
  6
Continuous
100
AcDbLine
 10
2013.779128472719
 20
125.5655564654029
 30
0.0
 11
2013.401477099591
 21
125.1879050900919
 31
0.0
  0
LINE
  5
1858
330
1F
100
AcDbEntity
  8
SPOJOVACÍ
  6
Continuous
100
AcDbLine
 10
2010.65931885348
 20
125.5655564654029
 30
0.0
 11
2011.859245630219
 21
120.7658493595539
 31
0.0
  0
LINE
  5
1859
330
1F
100
AcDbEntity
  8
SPOJOVACÍ
  6
Continuous
100
AcDbLine
 10
2010.65931885348
 20
125.5655564654029
 30
0.0
 11
2010.877910165507
 21
125.1879050900919
 31
0.0
  0
LINE
  5
185A
330
1F
100
AcDbEntity
  8
SPOJOVACÍ
  6
Continuous
100
AcDbLine
 10
2011.859245630219
 20
120.7658493595539
 30
0.0
 11
2012.236897003071
 21
121.1435007304993
 31
0.0
  0
LINE
  5
185B
330
1F
100
AcDbEntity
  8
SPOJOVACÍ
  6
Continuous
100
AcDbLine
 10
2011.859245630219
 20
120.7658493595539
 30
0.0
 11
2011.640654318193
 21
121.1435007304993
 31
0.0
  0
LINE
  5
185C
330
1F
100
AcDbEntity
  8
SPOJOVACÍ
  6
Continuous
100
AcDbLine
 10
2010.877910165507
 20
125.1879050900919
 30
0.0
 11
2012.236897003071
 21
121.1435007304993
 31
0.0
  0
LINE
  5
185D
330
1F
100
AcDbEntity
  8
SPOJOVACÍ
  6
Continuous
100
AcDbLine
 10
2007.97204097951
 20
124.5153879916637
 30
0.0
 11
2010.490957034539
 21
124.5153879916637
 31
0.0
  0
LINE
  5
185E
330
1F
100
AcDbEntity
  8
SPOJOVACÍ
  6
Continuous
100
AcDbLine
 10
2008.885473610896
 20
121.8160178289275
 30
0.0
 11
2011.404389665926
 21
121.8160178289275
 31
0.0
  0
LINE
  5
185F
330
1F
100
AcDbEntity
  8
SPOJOVACÍ
  6
Continuous
100
AcDbLine
 10
2007.539509234518
 20
125.5655564654029
 30
0.0
 11
2008.739436010981
 21
120.7658493595539
 31
0.0
  0
LINE
  5
1860
330
1F
100
AcDbEntity
  8
SPOJOVACÍ
  6
Continuous
100
AcDbLine
 10
2007.539509234518
 20
125.5655564654029
 30
0.0
 11
2007.757170370567
 21
125.1879050900919
 31
0.0
  0
LINE
  5
1861
330
1F
100
AcDbEntity
  8
SPOJOVACÍ
  6
Continuous
100
AcDbLine
 10
2007.539509234518
 20
125.5655564654029
 30
0.0
 11
2007.160927685688
 21
125.1879050900919
 31
0.0
  0
LINE
  5
1862
330
1F
100
AcDbEntity
  8
SPOJOVACÍ
  6
Continuous
100
AcDbLine
 10
2008.739436010981
 20
120.7658493595539
 30
0.0
 11
2009.117087384109
 21
121.1435007304993
 31
0.0
  0
LINE
  5
1863
330
1F
100
AcDbEntity
  8
SPOJOVACÍ
  6
Continuous
100
AcDbLine
 10
2008.739436010981
 20
120.7658493595539
 30
0.0
 11
2008.520844698954
 21
121.1435007304993
 31
0.0
  0
LINE
  5
1864
330
1F
100
AcDbEntity
  8
SPOJOVACÍ
  6
Continuous
100
AcDbLine
 10
2007.757170370567
 20
125.1879050900919
 30
0.0
 11
2009.117087384109
 21
121.1435007304993
 31
0.0
  0
LINE
  5
1865
330
1F
100
AcDbEntity
  8
SPOJOVACÍ
  6
Continuous
100
AcDbLine
 10
2007.160927685688
 20
125.1879050900919
 30
0.0
 11
2008.520844698954
 21
121.1435007304993
 31
0.0
  0
LINE
  5
1866
330
1F
100
AcDbEntity
  8
SPOJOVACÍ
  6
Continuous
100
AcDbLine
 10
2010.65931885348
 20
125.5655564654029
 30
0.0
 11
2010.281667480352
 21
125.1879050900919
 31
0.0
  0
LINE
  5
1867
330
1F
100
AcDbEntity
  8
SPOJOVACÍ
  6
Continuous
100
AcDbLine
 10
2010.281667480352
 20
125.1879050900919
 30
0.0
 11
2011.640654318193
 21
121.1435007304993
 31
0.0
  0
LINE
  5
1868
330
1F
100
AcDbEntity
  8
SPOJOVACÍ
  6
Continuous
100
AcDbLine
 10
2020.456860510674
 20
124.5153879916637
 30
0.0
 11
2021.704226252563
 21
124.5153879916637
 31
0.0
  0
LINE
  5
1869
330
1F
100
AcDbEntity
  8
SPOJOVACÍ
  6
Continuous
100
AcDbLine
 10
2018.244902468066
 20
121.8160178289275
 30
0.0
 11
2020.763818523095
 21
121.8160178289275
 31
0.0
  0
LINE
  5
186A
330
1F
100
AcDbEntity
  8
SPOJOVACÍ
  6
Continuous
100
AcDbLine
 10
2021.367502614679
 20
121.8160178289275
 30
0.0
 11
2021.704226252563
 21
121.8160178289275
 31
0.0
  0
LINE
  5
186B
330
1F
100
AcDbEntity
  8
SPOJOVACÍ
  6
Continuous
100
AcDbLine
 10
2021.704226252563
 20
124.5153879916637
 30
0.0
 11
2022.90136250192
 21
124.3656296889406
 31
0.0
  0
LINE
  5
186C
330
1F
100
AcDbEntity
  8
SPOJOVACÍ
  6
Continuous
100
AcDbLine
 10
2032.504497417516
 20
123.1657029124784
 30
0.0
 11
2029.668391416247
 21
122.8113059313494
 31
0.0
  0
LINE
  5
186D
330
1F
100
AcDbEntity
  8
SPOJOVACÍ
  6
Continuous
100
AcDbLine
 10
2023.521789757773
 20
124.2884250964147
 30
0.0
 11
2025.843508543837
 21
123.9982102468951
 31
0.0
  0
LINE
  5
186E
330
1F
100
AcDbEntity
  8
SPOJOVACÍ
  6
Continuous
100
AcDbLine
 10
2026.474167733502
 20
123.919145304057
 30
0.0
 11
2028.794956343858
 21
123.628930458903
 31
0.0
  0
LINE
  5
186F
330
1F
100
AcDbEntity
  8
SPOJOVACÍ
  6
Continuous
100
AcDbLine
 10
2029.415383599711
 20
123.551725866377
 30
0.0
 11
2032.504497417516
 21
123.1657029124784
 31
0.0
  0
LINE
  5
1870
330
1F
100
AcDbEntity
  8
SPOJOVACÍ
  6
Continuous
100
AcDbLine
 10
2029.099123829181
 20
122.7396823941256
 30
0.0
 11
2026.954138444196
 21
122.4717917658148
 31
0.0
  0
LINE
  5
1871
330
1F
100
AcDbEntity
  8
SPOJOVACÍ
  6
Continuous
100
AcDbLine
 10
2026.382080329747
 20
122.4001682329566
 30
0.0
 11
2024.245466526894
 21
122.133207777619
 31
0.0
  0
LINE
  5
1872
330
1F
100
AcDbEntity
  8
SPOJOVACÍ
  6
Continuous
100
AcDbLine
 10
2023.675268763849
 20
122.0615842403953
 30
0.0
 11
2021.704226252563
 21
121.8160178289275
 31
0.0
  0
LINE
  5
1873
330
1F
100
AcDbEntity
  8
SPOJOVACÍ
  6
Continuous
100
AcDbLine
 10
2023.096699418942
 20
125.3116184709819
 30
0.0
 11
2023.315290730968
 21
124.9330369226976
 31
0.0
  0
LINE
  5
1874
330
1F
100
AcDbEntity
  8
SPOJOVACÍ
  6
Continuous
100
AcDbLine
 10
2023.096699418942
 20
125.3116184709819
 30
0.0
 11
2022.719048045814
 21
124.9330369226976
 31
0.0
  0
LINE
  5
1875
330
1F
100
AcDbEntity
  8
SPOJOVACÍ
  6
Continuous
100
AcDbLine
 10
2024.069663301247
 20
121.1862888182389
 30
0.0
 11
2024.448244850353
 21
121.5639401891843
 31
0.0
  0
LINE
  5
1876
330
1F
100
AcDbEntity
  8
SPOJOVACÍ
  6
Continuous
100
AcDbLine
 10
2024.069663301247
 20
121.1862888182389
 30
0.0
 11
2023.852002165198
 21
121.5639401891843
 31
0.0
  0
LINE
  5
1877
330
1F
100
AcDbEntity
  8
SPOJOVACÍ
  6
Continuous
100
AcDbLine
 10
2023.315290730968
 20
124.9330369226976
 30
0.0
 11
2024.448244850353
 21
121.5639401891843
 31
0.0
  0
LINE
  5
1878
330
1F
100
AcDbEntity
  8
SPOJOVACÍ
  6
Continuous
100
AcDbLine
 10
2022.719048045814
 20
124.9330369226976
 30
0.0
 11
2023.852002165198
 21
121.5639401891843
 31
0.0
  0
LINE
  5
1879
330
1F
100
AcDbEntity
  8
SPOJOVACÍ
  6
Continuous
100
AcDbLine
 10
2023.096699418942
 20
125.3116184709819
 30
0.0
 11
2024.069663301247
 21
121.1862888182389
 31
0.0
  0
LINE
  5
187A
330
1F
100
AcDbEntity
  8
SPOJOVACÍ
  6
Continuous
100
AcDbLine
 10
2026.11139917324
 20
124.747001764876
 30
0.0
 11
2026.329060309288
 21
124.369350389565
 31
0.0
  0
LINE
  5
187B
330
1F
100
AcDbEntity
  8
SPOJOVACÍ
  6
Continuous
100
AcDbLine
 10
2026.11139917324
 20
124.747001764876
 30
0.0
 11
2025.732817624133
 21
124.369350389565
 31
0.0
  0
LINE
  5
187C
330
1F
100
AcDbEntity
  8
SPOJOVACÍ
  6
Continuous
100
AcDbLine
 10
2026.74484889001
 20
121.6309128484448
 30
0.0
 11
2027.12343043884
 21
122.0085642193902
 31
0.0
  0
LINE
  5
187D
330
1F
100
AcDbEntity
  8
SPOJOVACÍ
  6
Continuous
100
AcDbLine
 10
2026.74484889001
 20
121.6309128484448
 30
0.0
 11
2026.527187753961
 21
122.0085642193902
 31
0.0
  0
LINE
  5
187E
330
1F
100
AcDbEntity
  8
SPOJOVACÍ
  6
Continuous
100
AcDbLine
 10
2026.329060309288
 20
124.369350389565
 30
0.0
 11
2027.12343043884
 21
122.0085642193902
 31
0.0
  0
LINE
  5
187F
330
1F
100
AcDbEntity
  8
SPOJOVACÍ
  6
Continuous
100
AcDbLine
 10
2025.732817624133
 20
124.369350389565
 30
0.0
 11
2026.527187753961
 21
122.0085642193902
 31
0.0
  0
LINE
  5
1880
330
1F
100
AcDbEntity
  8
SPOJOVACÍ
  6
Continuous
100
AcDbLine
 10
2026.11139917324
 20
124.747001764876
 30
0.0
 11
2026.74484889001
 21
121.6309128484448
 31
0.0
  0
LINE
  5
1881
330
1F
100
AcDbEntity
  8
SPOJOVACÍ
  6
Continuous
100
AcDbLine
 10
2029.125168751559
 20
124.1823850544045
 30
0.0
 11
2029.343760063579
 21
123.8047336834591
 31
0.0
  0
LINE
  5
1882
330
1F
100
AcDbEntity
  8
SPOJOVACÍ
  6
Continuous
100
AcDbLine
 10
2029.125168751559
 20
124.1823850544045
 30
0.0
 11
2028.747517378431
 21
123.8047336834591
 31
0.0
  0
LINE
  5
1883
330
1F
100
AcDbEntity
  8
SPOJOVACÍ
  6
Continuous
100
AcDbLine
 10
2029.435847467333
 20
122.0280979129478
 30
0.0
 11
2029.814429016163
 21
122.4057492838932
 31
0.0
  0
LINE
  5
1884
330
1F
100
AcDbEntity
  8
SPOJOVACÍ
  6
Continuous
100
AcDbLine
 10
2029.435847467333
 20
122.0280979129478
 30
0.0
 11
2029.218186331016
 21
122.4057492838932
 31
0.0
  0
LINE
  5
1885
330
1F
100
AcDbEntity
  8
SPOJOVACÍ
  6
Continuous
100
AcDbLine
 10
2029.343760063579
 20
123.8047336834591
 30
0.0
 11
2029.814429016163
 21
122.4057492838932
 31
0.0
  0
LINE
  5
1886
330
1F
100
AcDbEntity
  8
SPOJOVACÍ
  6
Continuous
100
AcDbLine
 10
2028.747517378431
 20
123.8047336834591
 30
0.0
 11
2029.218186331016
 21
122.4057492838932
 31
0.0
  0
LINE
  5
1887
330
1F
100
AcDbEntity
  8
SPOJOVACÍ
  6
Continuous
100
AcDbLine
 10
2029.125168751559
 20
124.1823850544045
 30
0.0
 11
2029.435847467333
 21
122.0280979129478
 31
0.0
  0
LINE
  5
1888
330
1F
100
AcDbEntity
  8
SPOJOVACÍ
  6
Continuous
100
AcDbLine
 10
2020.019677886628
 20
125.5655564654029
 30
0.0
 11
2021.219604663091
 21
120.7658493595539
 31
0.0
  0
LINE
  5
1889
330
1F
100
AcDbEntity
  8
SPOJOVACÍ
  6
Continuous
100
AcDbLine
 10
2021.219604663091
 20
120.7658493595539
 30
0.0
 11
2021.597256036219
 21
121.1435007304993
 31
0.0
  0
LINE
  5
188A
330
1F
100
AcDbEntity
  8
SPOJOVACÍ
  6
Continuous
100
AcDbLine
 10
2021.219604663091
 20
120.7658493595539
 30
0.0
 11
2021.001013351064
 21
121.1435007304993
 31
0.0
  0
LINE
  5
188B
330
1F
100
AcDbEntity
  8
SPOJOVACÍ
  6
Continuous
100
AcDbLine
 10
2020.237339022676
 20
125.1879050900919
 30
0.0
 11
2021.597256036219
 21
121.1435007304993
 31
0.0
  0
LINE
  5
188C
330
1F
100
AcDbEntity
  8
SPOJOVACÍ
  6
Continuous
100
AcDbLine
 10
2019.641096337522
 20
125.1879050900919
 30
0.0
 11
2021.001013351064
 21
121.1435007304993
 31
0.0
  0
LINE
  5
188D
330
1F
100
AcDbEntity
  8
SPOJOVACÍ
  6
Continuous
100
AcDbLine
 10
2014.209799866037
 20
124.5153879916637
 30
0.0
 11
2016.738017678906
 21
124.5153879916637
 31
0.0
  0
LINE
  5
188E
330
1F
100
AcDbEntity
  8
SPOJOVACÍ
  6
Continuous
100
AcDbLine
 10
2012.00063235108
 20
121.8160178289275
 30
0.0
 11
2014.528850163949
 21
121.8160178289275
 31
0.0
  0
LINE
  5
188F
330
1F
100
AcDbEntity
  8
SPOJOVACÍ
  6
Continuous
100
AcDbLine
 10
2015.123232497424
 20
121.8160178289275
 30
0.0
 11
2017.644008904133
 21
121.8160178289275
 31
0.0
  0
LINE
  5
1890
330
1F
100
AcDbEntity
  8
SPOJOVACÍ
  6
Continuous
100
AcDbLine
 10
2017.342631946192
 20
124.5153879916637
 30
0.0
 11
2019.860617825519
 21
124.5153879916637
 31
0.0
  0
LINE
  5
1891
330
1F
100
AcDbEntity
  8
SPOJOVACÍ
  6
Continuous
100
AcDbLine
 10
2013.779128472719
 20
125.5655564654029
 30
0.0
 11
2014.979055249181
 21
120.7658493595539
 31
0.0
  0
LINE
  5
1892
330
1F
100
AcDbEntity
  8
SPOJOVACÍ
  6
Continuous
100
AcDbLine
 10
2014.979055249181
 20
120.7658493595539
 30
0.0
 11
2015.357636798011
 21
121.1435007304993
 31
0.0
  0
LINE
  5
1893
330
1F
100
AcDbEntity
  8
SPOJOVACÍ
  6
Continuous
100
AcDbLine
 10
2014.979055249181
 20
120.7658493595539
 30
0.0
 11
2014.761394112864
 21
121.1435007304993
 31
0.0
  0
LINE
  5
1894
330
1F
100
AcDbEntity
  8
SPOJOVACÍ
  6
Continuous
100
AcDbLine
 10
2013.997719784745
 20
125.1879050900919
 30
0.0
 11
2015.357636798011
 21
121.1435007304993
 31
0.0
  0
LINE
  5
1895
330
1F
100
AcDbEntity
  8
SPOJOVACÍ
  6
Continuous
100
AcDbLine
 10
2013.401477099591
 20
125.1879050900919
 30
0.0
 11
2014.761394112864
 21
121.1435007304993
 31
0.0
  0
LINE
  5
1896
330
1F
100
AcDbEntity
  8
SPOJOVACÍ
  6
Continuous
100
AcDbLine
 10
2016.898938091688
 20
125.5655564654029
 30
0.0
 11
2018.09886486815
 21
120.7658493595539
 31
0.0
  0
LINE
  5
1897
330
1F
100
AcDbEntity
  8
SPOJOVACÍ
  6
Continuous
100
AcDbLine
 10
2016.898938091688
 20
125.5655564654029
 30
0.0
 11
2017.117529403707
 21
125.1879050900919
 31
0.0
  0
LINE
  5
1898
330
1F
100
AcDbEntity
  8
SPOJOVACÍ
  6
Continuous
100
AcDbLine
 10
2016.898938091688
 20
125.5655564654029
 30
0.0
 11
2016.52128671856
 21
125.1879050900919
 31
0.0
  0
LINE
  5
1899
330
1F
100
AcDbEntity
  8
SPOJOVACÍ
  6
Continuous
100
AcDbLine
 10
2018.09886486815
 20
120.7658493595539
 30
0.0
 11
2018.47744641698
 21
121.1435007304993
 31
0.0
  0
LINE
  5
189A
330
1F
100
AcDbEntity
  8
SPOJOVACÍ
  6
Continuous
100
AcDbLine
 10
2018.09886486815
 20
120.7658493595539
 30
0.0
 11
2017.881203732102
 21
121.1435007304993
 31
0.0
  0
LINE
  5
189B
330
1F
100
AcDbEntity
  8
SPOJOVACÍ
  6
Continuous
100
AcDbLine
 10
2017.117529403707
 20
125.1879050900919
 30
0.0
 11
2018.47744641698
 21
121.1435007304993
 31
0.0
  0
LINE
  5
189C
330
1F
100
AcDbEntity
  8
SPOJOVACÍ
  6
Continuous
100
AcDbLine
 10
2016.52128671856
 20
125.1879050900919
 30
0.0
 11
2017.881203732102
 21
121.1435007304993
 31
0.0
  0
LINE
  5
189D
330
1F
100
AcDbEntity
  8
SPOJOVACÍ
  6
Continuous
100
AcDbLine
 10
2020.019677886628
 20
125.5655564654029
 30
0.0
 11
2020.237339022676
 21
125.1879050900919
 31
0.0
  0
LINE
  5
189E
330
1F
100
AcDbEntity
  8
SPOJOVACÍ
  6
Continuous
100
AcDbLine
 10
2020.019677886628
 20
125.5655564654029
 30
0.0
 11
2019.641096337522
 21
125.1879050900919
 31
0.0
  0
LINE
  5
189F
330
1F
100
AcDbEntity
  8
SPOJOVACÍ
  6
Continuous
100
AcDbLine
 10
1996.739238069565
 20
128.2658568011123
 30
0.0
 11
1996.739238069565
 21
118.0655490238444
 31
0.0
  0
LINE
  5
18A0
330
1F
100
AcDbEntity
  8
SPOJOVACÍ
  6
Continuous
100
AcDbLine
 10
1996.739238069565
 20
128.2658568011123
 30
0.0
 11
1997.939164846297
 21
128.2658568011123
 31
0.0
  0
LINE
  5
18A1
330
1F
100
AcDbEntity
  8
SPOJOVACÍ
  6
Continuous
100
AcDbLine
 10
1997.939164846297
 20
128.2658568011123
 30
0.0
 11
1998.683305482771
 21
126.9161717175615
 31
0.0
  0
LINE
  5
18A2
330
1F
100
AcDbEntity
  8
SPOJOVACÍ
  6
Continuous
100
AcDbLine
 10
2000.401340177521
 20
120.9760690888964
 30
0.0
 11
1999.193971994622
 21
120.0179880189119
 31
0.0
  0
LINE
  5
18A3
330
1F
100
AcDbEntity
  8
SPOJOVACÍ
  6
Continuous
100
AcDbLine
 10
2001.815207387224
 20
121.5890549380441
 30
0.0
 11
2000.401340177521
 21
120.9760690888964
 31
0.0
  0
LINE
  5
18A4
330
1F
100
AcDbEntity
  8
SPOJOVACÍ
  6
Continuous
100
AcDbLine
 10
2003.338835340653
 20
121.8160178289275
 30
0.0
 11
2001.815207387224
 21
121.5890549380441
 31
0.0
  0
LINE
  5
18A5
330
1F
100
AcDbEntity
  8
SPOJOVACÍ
  6
Continuous
100
AcDbLine
 10
1996.739238069565
 20
118.0655490238444
 30
0.0
 11
1997.939164846297
 21
118.0655490238444
 31
0.0
  0
LINE
  5
18A6
330
1F
100
AcDbEntity
  8
SPOJOVACÍ
  6
Continuous
100
AcDbLine
 10
1997.939164846297
 20
128.2658568011123
 30
0.0
 11
1997.939164846297
 21
118.0655490238444
 31
0.0
  0
LINE
  5
18A7
330
1F
100
AcDbEntity
  8
SPOJOVACÍ
  6
Continuous
100
AcDbLine
 10
1998.27588848418
 20
118.7808542100123
 30
0.0
 11
1997.939164846297
 21
118.0655490238444
 31
0.0
  0
LINE
  5
18A8
330
1F
100
AcDbEntity
  8
SPOJOVACÍ
  6
Continuous
100
AcDbLine
 10
1999.193971994622
 20
120.0179880189119
 30
0.0
 11
1998.27588848418
 21
118.7808542100123
 31
0.0
  0
LINE
  5
18A9
330
1F
100
AcDbEntity
  8
SPOJOVACÍ
  6
Continuous
100
AcDbLine
 10
2002.551906617531
 20
124.5814304735853
 30
0.0
 11
2003.338835340653
 21
124.5153879916637
 31
0.0
  0
LINE
  5
18AA
330
1F
100
AcDbEntity
  8
SPOJOVACÍ
  6
Continuous
100
AcDbLine
 10
2001.071066750481
 20
125.0093113378847
 30
0.0
 11
2002.551906617531
 21
124.5814304735853
 31
0.0
  0
LINE
  5
18AB
330
1F
100
AcDbEntity
  8
SPOJOVACÍ
  6
Continuous
100
AcDbLine
 10
1999.752077472183
 20
125.8055418172028
 30
0.0
 11
2001.071066750481
 21
125.0093113378847
 31
0.0
  0
LINE
  5
18AC
330
1F
100
AcDbEntity
  8
SPOJOVACÍ
  6
Continuous
100
AcDbLine
 10
1998.683305482771
 20
126.9161717175615
 30
0.0
 11
1999.752077472183
 21
125.8055418172028
 31
0.0
  0
LINE
  5
18AD
330
1F
100
AcDbEntity
  8
SPOJOVACÍ
  6
Continuous
100
AcDbLine
 10
2003.338835340653
 20
121.8160178289275
 30
0.0
 11
2008.281789519582
 21
121.8160178289275
 31
0.0
  0
LINE
  5
18AE
330
1F
100
AcDbEntity
  8
SPOJOVACÍ
  6
Continuous
100
AcDbLine
 10
2003.338835340653
 20
124.5153879916637
 30
0.0
 11
2007.376728470333
 21
124.5153879916637
 31
0.0
  0
LINE
  5
18AF
330
1F
100
AcDbEntity
  8
CETRIS
100
AcDbLine
 10
1984.739238069563
 20
99.50423531100604
 30
0.0
 11
1984.739238069563
 21
636.8694676114158
 31
0.0
  0
LINE
  5
18B0
330
1F
100
AcDbEntity
  8
CETRIS
100
AcDbLine
 10
2008.739238069562
 20
99.50423531100604
 30
0.0
 11
1984.739238069563
 21
99.50423531100604
 31
0.0
  0
LINE
  5
18B1
330
1F
100
AcDbEntity
  8
CETRIS
100
AcDbLine
 10
2021.221348106871
 20
63.75810588917409
 30
0.0
 11
2616.03682783767
 21
63.75810588917409
 31
0.0
  0
LINE
  5
18B2
330
1F
100
AcDbEntity
  8
CETRIS
100
AcDbLine
 10
2021.221348106871
 20
87.75810588917318
 30
0.0
 11
2021.221348106871
 21
63.75810588917409
 31
0.0
  0
TEXT
  5
18B3
330
1F
100
AcDbEntity
  8
POPIS
100
AcDbText
 10
1886.864071959633
 20
-251.4516673216771
 30
0.0
 40
25.0
  1
Nosný profil systému - úhelník (np. SPIDI, EuroFox, SPEEDY...)
 41
0.7
  7
SIMPLEX7
100
AcDbText
  0
TEXT
  5
18B4
330
1F
100
AcDbEntity
  8
POPIS
100
AcDbText
 10
1886.864071959633
 20
-215.8327786235882
 30
0.0
 40
25.0
  1
Upevňovací prvek systému - kotva (np. SPIDI, EuroFox, SPEEDY...)
 41
0.7
  7
SIMPLEX7
100
AcDbText
  0
TEXT
  5
18B5
330
1F
100
AcDbEntity
  8
POPIS
100
AcDbText
 10
1886.864071959633
 20
-110.3716076735149
 30
0.0
 40
25.0
  1
Vrut se zápustnou hlavou
 41
0.7
  7
SIMPLEX7
100
AcDbText
  0
TEXT
  5
18B6
330
1F
100
AcDbEntity
  8
POPIS
100
AcDbText
 10
1886.864071959633
 20
-144.321795918237
 30
0.0
 40
25.0
  1
Vzduchová mezera - min. 25 mm
 41
0.7
  7
SIMPLEX7
100
AcDbText
  0
TEXT
  5
18B7
330
1F
100
AcDbEntity
  8
POPIS
100
AcDbText
 10
1886.864071959633
 20
-73.77659605788676
 30
0.0
 40
25.0
  1
Deska CETRIS   (BASIC,FINISH,LASUR)
 41
0.7
  7
SIMPLEX7
100
AcDbText
  0
TEXT
  5
18B8
330
1F
100
AcDbEntity
  8
POPIS
100
AcDbText
 10
1832.520368799883
 20
-251.4516673216771
 30
0.0
 40
25.0
  1
06
 41
0.85
  7
SIMPLEX7
100
AcDbText
  0
TEXT
  5
18B9
330
1F
100
AcDbEntity
  8
POPIS
100
AcDbText
 10
1886.864071959633
 20
-325.0771643008861
 30
0.0
 40
25.0
  1
Tepelná izolace (np. ORSIL, ROCKWOOL, ISOVER, NOBASIL)
 41
0.7
  7
SIMPLEX7
100
AcDbText
  0
TEXT
  5
18BA
330
1F
100
AcDbEntity
  8
POPIS
100
AcDbText
 10
1886.864071959633
 20
-289.6350071642022
 30
0.0
 40
25.0
  1
Hliníkový L profil (á 500 mm)
 41
0.7
  7
SIMPLEX7
100
AcDbText
  0
TEXT
  5
18BB
330
1F
100
AcDbEntity
  8
POPIS
100
AcDbText
 10
1832.520368799883
 20
-360.3321261047581
 30
0.0
 40
25.0
  1
09
 41
0.85
  7
SIMPLEX7
100
AcDbText
  0
TEXT
  5
18BC
330
1F
100
AcDbEntity
  8
POPIS
100
AcDbText
 10
1832.520368799883
 20
-289.6350071642022
 30
0.0
 40
25.0
  1
07
 41
0.85
  7
SIMPLEX7
100
AcDbText
  0
TEXT
  5
18BD
330
1F
100
AcDbEntity
  8
POPIS
100
AcDbText
 10
1832.520368799883
 20
-325.0771643008861
 30
0.0
 40
25.0
  1
08
 41
0.85
  7
SIMPLEX7
100
AcDbText
  0
TEXT
  5
18BE
330
1F
100
AcDbEntity
  8
POPIS
100
AcDbText
 10
1832.520368799883
 20
-110.3716076735149
 30
0.0
 40
25.0
  1
02
 41
0.85
  7
SIMPLEX7
100
AcDbText
  0
TEXT
  5
18BF
330
1F
100
AcDbEntity
  8
POPIS
100
AcDbText
 10
1886.864071959633
 20
-179.7259571363997
 30
0.0
 40
25.0
  1
Kotevní prvek
 41
0.7
  7
SIMPLEX7
100
AcDbText
  0
TEXT
  5
18C0
330
1F
100
AcDbEntity
  8
POPIS
100
AcDbText
 10
1832.520368799883
 20
-144.321795918237
 30
0.0
 40
25.0
  1
03
 41
0.85
  7
SIMPLEX7
100
AcDbText
  0
TEXT
  5
18C1
330
1F
100
AcDbEntity
  8
POPIS
100
AcDbText
 10
1832.520368799883
 20
-215.8327786235882
 30
0.0
 40
25.0
  1
05
 41
0.85
  7
SIMPLEX7
100
AcDbText
  0
TEXT
  5
18C2
330
1F
100
AcDbEntity
  8
POPIS
100
AcDbText
 10
1832.520368799883
 20
-179.7259571363997
 30
0.0
 40
25.0
  1
04
 41
0.85
  7
SIMPLEX7
100
AcDbText
  0
TEXT
  5
18C3
330
1F
100
AcDbEntity
  8
POPIS
100
AcDbText
 10
1832.524014074712
 20
-71.73094288425045
 30
0.0
 40
25.0
  1
01
 41
0.85
  7
SIMPLEX7
100
AcDbText
  0
CIRCLE
  5
18C4
330
1F
100
AcDbEntity
  8
POPIS
100
AcDbCircle
 10
2059.882992551742
 20
-41.38443947779944
 30
0.0
 40
11.13656048292026
  0
TEXT
  5
18C5
330
1F
100
AcDbEntity
  8
POPIS
100
AcDbText
 10
2055.50070904142
 20
-47.49460084574514
 30
0.0
 40
12.0
  1
R
 41
0.85
  7
SIMPLEX7
100
AcDbText
  0
LWPOLYLINE
  5
18C6
330
1F
100
AcDbEntity
  8
NOSNÉ KONSTRUKCE
100
AcDbPolyline
 90
        4
 70
     1
 43
0.0
 10
2212.027246472611
 20
96.75064234074159
 10
2212.027246472611
 20
93.99704937047715
 10
2015.714162166343
 20
93.99704937047715
 10
2015.714162166343
 20
96.75064234074159
  0
LINE
  5
18C7
330
1F
100
AcDbEntity
  8
STAVBA OBRYS
100
AcDbLine
 10
2148.848102573109
 20
227.5266571386477
 30
0.0
 11
2065.176689641365
 21
227.5266571386477
 31
0.0
  0
LINE
  5
18C8
330
1F
100
AcDbEntity
  8
NOSNÉ KONSTRUKCE
100
AcDbLine
 10
2060.973676587145
 20
306.2582444137355
 30
0.0
 11
2139.885221492926
 21
306.2582444137391
 31
0.0
  0
LINE
  5
18C9
330
1F
100
AcDbEntity
  8
NOSNÉ KONSTRUKCE
100
AcDbLine
 10
2020.862280374265
 20
301.0143369711453
 30
0.0
 11
2149.090701086737
 21
301.0143369711371
 31
0.0
  0
LINE
  5
18CA
330
1F
100
AcDbEntity
  8
NOSNÉ KONSTRUKCE
100
AcDbLine
 10
2020.862280374265
 20
302.4517673816202
 30
0.0
 11
2148.885221492928
 21
302.451767381612
 31
0.0
  0
LINE
  5
18CB
330
1F
100
AcDbEntity
  8
STAVBA OBRYS
100
AcDbLine
 10
2065.176689641365
 20
144.1981058891736
 30
0.0
 11
2611.332567687947
 21
144.1981058891736
 31
0.0
  0
LINE
  5
18CC
330
1F
100
AcDbEntity
  8
STAVBA OBRYS
  6
IZOLACE
 48
4.0
100
AcDbLine
 10
2608.823244103762
 20
186.3600274752574
 30
0.0
 11
2065.176689641365
 21
185.5591132039193
 31
0.0
  0
LINE
  5
18CD
330
1F
100
AcDbEntity
  8
STAVBA OBRYS
  6
DASHDOT2
100
AcDbLine
 10
2036.791726464544
 20
431.761956843657
 30
0.0
 11
2249.568215530642
 21
431.761956843657
 31
0.0
  0
LINE
  5
18CE
330
1F
100
AcDbEntity
  8
POPIS
100
AcDbLine
 10
2177.781975524128
 20
330.3916537534454
 30
0.0
 11
1977.49384694728
 21
457.7694577096139
 31
0.0
  0
LINE
  5
18CF
330
1F
100
AcDbEntity
  8
STAVBA OBRYS
  6
DASHED
100
AcDbLine
 10
2230.920302198843
 20
425.199456843657
 30
0.0
 11
2070.549970966218
 21
425.1994568436588
 31
0.0
  0
LINE
  5
18D0
330
1F
100
AcDbEntity
  8
STAVBA OBRYS
  6
DASHED
100
AcDbLine
 10
2230.920302198843
 20
438.324456843657
 30
0.0
 11
2070.549970966218
 21
438.3244568436587
 31
0.0
  0
LINE
  5
18D1
330
1F
100
AcDbEntity
  8
STAVBA OBRYS
100
AcDbLine
 10
2065.176689641365
 20
637.2843584861424
 30
0.0
 11
2065.176689641365
 21
144.1981058891736
 31
0.0
  0
LINE
  5
18D2
330
1F
100
AcDbEntity
  8
STAVBA OBRYS
  6
IZOLACE
 48
4.0
100
AcDbLine
 10
2107.104469231042
 20
226.2395552011697
 30
0.0
 11
2106.498907315109
 21
637.2843584861424
 31
0.0
  0
LINE
  5
18D3
330
1F
100
AcDbEntity
  8
NOSNÉ KONSTRUKCE
100
AcDbLine
 10
2010.28394057936
 20
332.0943489607328
 30
0.0
 11
2010.28394057936
 21
320.3249274663306
 31
0.0
  0
LWPOLYLINE
  5
18D4
330
1F
100
AcDbEntity
  8
NOSNÉ KONSTRUKCE
100
AcDbPolyline
 90
        3
 70
     0
 43
0.0
 10
2015.187703799139
 20
300.7416327172235
 10
2015.187703799139
 20
332.0943489607328
 10
2012.661616367139
 20
332.0943489607328
  0
LINE
  5
18D5
330
1F
100
AcDbEntity
  8
POPIS
100
AcDbLine
 10
2106.986583612826
 20
306.2582444137373
 30
0.0
 11
1977.49384694728
 21
424.9349821555464
 31
0.0
  0
TEXT
  5
18D6
330
1F
100
AcDbEntity
  8
POPIS
100
AcDbText
 10
1802.476136823242
 20
34.7983032082451
 30
0.0
 40
25.0
  1
09
 41
0.7
  7
SIMPLEX7
100
AcDbText
  0
TEXT
  5
18D7
330
1F
100
AcDbEntity
  8
POPIS
100
AcDbText
 10
1802.476136823242
 20
218.4041834196217
 30
0.0
 40
25.0
  1
07
 41
0.7
  7
SIMPLEX7
100
AcDbText
  0
TEXT
  5
18D8
330
1F
100
AcDbEntity
  8
POPIS
100
AcDbText
 10
1802.476136823242
 20
167.7695043131501
 30
0.0
 40
25.0
  1
08
 41
0.7
  7
SIMPLEX7
100
AcDbText
  0
TEXT
  5
18D9
330
1F
100
AcDbEntity
  8
POPIS
100
AcDbText
 10
1802.476136823242
 20
109.6328205954308
 30
0.0
 40
25.0
  1
02
 41
0.7
  7
SIMPLEX7
100
AcDbText
  0
INSERT
  5
18DA
330
1F
100
AcDbEntity
  8
POPIS
100
AcDbBlockReference
  2
E_PUNKT
 10
2080.994004571377
 20
181.2933728096726
 30
0.0
  0
LWPOLYLINE
  5
18DB
330
1F
100
AcDbEntity
  8
NOSNÉ KONSTRUKCE
100
AcDbPolyline
 90
        4
 70
     1
 43
0.0
 10
2015.714162166343
 20
288.516797879189
 10
2018.467755136607
 20
288.516797879189
 10
2018.467755136607
 20
93.99704937047715
 10
2015.714162166343
 20
93.99704937047715
  0
LINE
  5
18DC
330
1F
100
AcDbEntity
  8
POPIS
100
AcDbLine
 10
1843.011572117793
 20
48.24164465761566
 30
0.0
 11
1989.13273758065
 21
48.24164465761566
 31
0.0
  0
LINE
  5
18DD
330
1F
100
AcDbEntity
  8
POPIS
100
AcDbLine
 10
1843.011572117793
 20
123.0761620448014
 30
0.0
 11
1989.13273758065
 21
123.0761620448014
 31
0.0
  0
INSERT
  5
18DE
330
1F
100
AcDbEntity
  8
POPIS
100
AcDbBlockReference
  2
E_PUNKT
 10
2010.905167013785
 20
64.77489926452597
 30
0.0
  0
LINE
  5
18DF
330
1F
100
AcDbEntity
  8
POPIS
100
AcDbLine
 10
1989.13273758065
 20
48.24164465761566
 30
0.0
 11
2010.953288068289
 21
65.17431797169627
 31
0.0
  0
INSERT
  5
18E0
330
1F
100
AcDbEntity
  8
POPIS
100
AcDbBlockReference
  2
E_PUNKT
 10
1989.084616526143
 20
123.1290375583015
 30
0.0
  0
LINE
  5
18E1
330
1F
100
AcDbEntity
  8
POPIS
100
AcDbLine
 10
1843.011572117793
 20
231.8475248689923
 30
0.0
 11
2016.082007839755
 21
231.8475248689923
 31
0.0
  0
LINE
  5
18E2
330
1F
100
AcDbEntity
  8
POPIS
100
AcDbLine
 10
1843.011572117793
 20
181.2128457625207
 30
0.0
 11
2079.776428674548
 21
181.2128457625207
 31
0.0
  0
INSERT
  5
18E3
330
1F
100
AcDbEntity
  8
POPIS
100
AcDbBlockReference
  2
E_PUNKT
 10
2106.9589732372
 20
306.2291760828651
 30
0.0
  0
LINE
  5
18E4
330
1F
100
AcDbEntity
  8
NOSNÉ KONSTRUKCE
100
AcDbLine
 10
2059.489887407624
 20
305.5992774747504
 30
0.0
 11
2056.645200875991
 21
302.4517673816175
 31
0.0
  0
ARC
  5
18E5
330
1F
100
AcDbEntity
  8
NOSNÉ KONSTRUKCE
100
AcDbCircle
 10
2060.973676587145
 20
304.2582444137355
 30
0.0
 40
2.0
100
AcDbArc
 50
90.0
 51
137.8930566009589
  0
LINE
  5
18E6
330
1F
100
AcDbEntity
  8
NOSNÉ KONSTRUKCE
100
AcDbLine
 10
2075.232280343571
 20
297.2958494650505
 30
0.0
 11
2080.8888251741
 21
301.0143369711407
 31
0.0
  0
LINE
  5
18E7
330
1F
100
AcDbEntity
  8
NOSNÉ KONSTRUKCE
100
AcDbLine
 10
2074.091358542191
 20
298.7332798755254
 30
0.0
 11
2078.096466902195
 21
301.0143369711416
 31
0.0
  0
LINE
  5
18E8
330
1F
100
AcDbEntity
  8
NOSNÉ KONSTRUKCE
100
AcDbLine
 10
2067.676781106125
 20
300.7416327172235
 30
0.0
 11
2067.676781106125
 21
299.065472104567
 31
0.0
  0
LINE
  5
18E9
330
1F
100
AcDbEntity
  8
NOSNÉ KONSTRUKCE
100
AcDbLine
 10
2010.28394057936
 20
320.3249274663306
 30
0.0
 11
2012.661616367139
 21
320.3249274663306
 31
0.0
  0
LINE
  5
18EA
330
1F
100
AcDbEntity
  8
NOSNÉ KONSTRUKCE
100
AcDbLine
 10
2020.862280374267
 20
298.7332798755254
 30
0.0
 11
2020.862280374265
 21
297.2958494650505
 31
0.0
  0
LINE
  5
18EB
330
1F
100
AcDbEntity
  8
NOSNÉ KONSTRUKCE
100
AcDbLine
 10
2020.862280374265
 20
302.4517673816202
 30
0.0
 11
2020.862280374265
 21
301.0143369711453
 31
0.0
  0
LINE
  5
18EC
330
1F
100
AcDbEntity
  8
SPOJOVACÍ
100
AcDbLine
 10
2028.757322416346
 20
302.8324930120164
 30
0.0
 11
2034.294431791346
 21
302.8324930120164
 31
0.0
  0
LINE
  5
18ED
330
1F
100
AcDbEntity
  8
SPOJOVACÍ
100
AcDbLine
 10
2036.504853080492
 20
300.142998811298
 30
0.0
 11
2032.084010502201
 21
298.9584376125788
 31
0.0
  0
LINE
  5
18EE
330
1F
100
AcDbEntity
  8
SPOJOVACÍ
100
AcDbLine
 10
2036.504853080492
 20
302.6039363112999
 30
0.0
 11
2032.084010502201
 21
301.4193751125807
 31
0.0
  0
LINE
  5
18EF
330
1F
100
AcDbEntity
  8
SPOJOVACÍ
100
AcDbLine
 10
2036.504853080492
 20
301.373467561298
 30
0.0
 11
2032.084010502201
 21
300.1889063625798
 31
0.0
  0
LINE
  5
18F0
330
1F
100
AcDbEntity
  8
SPOJOVACÍ
100
AcDbLine
 10
2036.504853080492
 20
298.912530061298
 30
0.0
 11
2032.084010502201
 21
297.7279688625807
 31
0.0
  0
LINE
  5
18F1
330
1F
100
AcDbEntity
  8
NOSNÉ KONSTRUKCE
100
AcDbLine
 10
2074.091358542191
 20
298.7332798755254
 30
0.0
 11
2020.862280374267
 21
298.7332798755254
 31
0.0
  0
LINE
  5
18F2
330
1F
100
AcDbEntity
  8
NOSNÉ KONSTRUKCE
100
AcDbLine
 10
2020.862280374265
 20
297.2958494650505
 30
0.0
 11
2075.232280343571
 21
297.2958494650505
 31
0.0
  0
LINE
  5
18F3
330
1F
100
AcDbEntity
  8
NOSNÉ KONSTRUKCE
100
AcDbLine
 10
2067.676781106125
 20
299.065472104567
 30
0.0
 11
2015.187703799139
 21
299.065472104567
 31
0.0
  0
LINE
  5
18F4
330
1F
100
AcDbEntity
  8
NOSNÉ KONSTRUKCE
100
AcDbLine
 10
2015.187703799139
 20
300.7416327172235
 30
0.0
 11
2067.676781106125
 21
300.7416327172235
 31
0.0
  0
LINE
  5
18F5
330
1F
100
AcDbEntity
  8
SPOJOVACÍ
100
AcDbLine
 10
2034.294431791346
 20
302.8324930120164
 30
0.0
 11
2039.831541166346
 21
302.8324930120164
 31
0.0
  0
ARC
  5
18F6
330
1F
100
AcDbEntity
  8
SPOJOVACÍ
100
AcDbCircle
 10
2034.294431791346
 20
298.5221929432194
 30
0.0
 40
7.016998426235272
100
AcDbArc
 50
37.89856980784575
 51
142.1014301921542
  0
ARC
  5
18F7
330
1F
100
AcDbEntity
  8
SPOJOVACÍ
100
AcDbCircle
 10
2014.543227476539
 20
282.2787188465848
 30
0.0
 40
7.016998426235272
100
AcDbArc
 50
307.8985698078451
 51
52.10143019215482
  0
LINE
  5
18F8
330
1F
100
AcDbEntity
  8
SPOJOVACÍ
100
AcDbLine
 10
2012.255911962005
 20
284.4891401357303
 30
0.0
 11
2018.853527545336
 21
284.4891401357303
 31
0.0
  0
LINE
  5
18F9
330
1F
100
AcDbEntity
  8
SPOJOVACÍ
100
AcDbLine
 10
2012.255911962005
 20
280.0682975574403
 30
0.0
 11
2018.853527545336
 21
280.0682975574403
 31
0.0
  0
LINE
  5
18FA
330
1F
100
AcDbEntity
  8
SPOJOVACÍ
100
AcDbLine
 10
2018.853527545336
 20
282.2787188465848
 30
0.0
 11
2018.853527545336
 21
287.8158282215848
 31
0.0
  0
LINE
  5
18FB
330
1F
100
AcDbEntity
  8
SPOJOVACÍ
100
AcDbLine
 10
2018.853527545336
 20
276.7416094715848
 30
0.0
 11
2018.853527545336
 21
282.2787188465848
 31
0.0
  0
LINE
  5
18FC
330
1F
100
AcDbEntity
  8
SPOJOVACÍ
100
AcDbLine
 10
2016.164033344617
 20
284.4891401357303
 30
0.0
 11
2014.979472145898
 21
280.0682975574403
 31
0.0
  0
LINE
  5
18FD
330
1F
100
AcDbEntity
  8
SPOJOVACÍ
100
AcDbLine
 10
2018.624970844619
 20
284.4891401357303
 30
0.0
 11
2017.4404096459
 21
280.0682975574403
 31
0.0
  0
LINE
  5
18FE
330
1F
100
AcDbEntity
  8
SPOJOVACÍ
100
AcDbLine
 10
2017.394502094617
 20
284.4891401357303
 30
0.0
 11
2016.2099408959
 21
280.0682975574403
 31
0.0
  0
LINE
  5
18FF
330
1F
100
AcDbEntity
  8
SPOJOVACÍ
100
AcDbLine
 10
2014.933564594617
 20
284.4891401357303
 30
0.0
 11
2013.7490033959
 21
280.0682975574403
 31
0.0
  0
LINE
  5
1900
330
1F
100
AcDbEntity
  8
SPOJOVACÍ
100
AcDbLine
 10
2012.472627094617
 20
284.4891401357303
 30
0.0
 11
2011.537809771732
 21
281.0003543909273
 31
0.0
  0
LINE
  5
1901
330
1F
100
AcDbEntity
  8
SPOJOVACÍ
100
AcDbLine
 10
2010.552895244425
 20
282.2787188465848
 30
0.0
 11
2012.255911962005
 21
280.0682975574403
 31
0.0
  0
LINE
  5
1902
330
1F
100
AcDbEntity
  8
SPOJOVACÍ
100
AcDbLine
 10
2010.552895244425
 20
282.2787188465848
 30
0.0
 11
2012.255911962005
 21
284.4891401357303
 31
0.0
  0
LINE
  5
1903
330
1F
100
AcDbEntity
  8
SPOJOVACÍ
100
AcDbLine
 10
2013.703095844615
 20
284.4891401357303
 30
0.0
 11
2012.5185346459
 21
280.0682975574403
 31
0.0
  0
LINE
  5
1904
330
1F
100
AcDbEntity
  8
NOSNÉ KONSTRUKCE
100
AcDbLine
 10
2012.661616367139
 20
267.7127558610576
 30
0.0
 11
2010.28394057936
 21
267.7127558610576
 31
0.0
  0
LINE
  5
1905
330
1F
100
AcDbEntity
  8
NOSNÉ KONSTRUKCE
100
AcDbLine
 10
2010.28394057936
 20
267.7127558610576
 30
0.0
 11
2010.28394057936
 21
279.4821773554598
 31
0.0
  0
LINE
  5
1906
330
1F
100
AcDbEntity
  8
NOSNÉ KONSTRUKCE
100
AcDbLine
 10
2010.28394057936
 20
279.4821773554598
 30
0.0
 11
2012.661616367139
 21
279.4821773554598
 31
0.0
  0
LINE
  5
1907
330
1F
100
AcDbEntity
  8
SPOJOVACÍ
100
AcDbLine
 10
2036.504853080492
 20
296.451592561298
 30
0.0
 11
2033.016067335688
 21
295.5167752384135
 31
0.0
  0
LINE
  5
1908
330
1F
100
AcDbEntity
  8
SPOJOVACÍ
100
AcDbLine
 10
2034.294431791346
 20
294.5318607111061
 30
0.0
 11
2032.084010502201
 21
296.2348774286869
 31
0.0
  0
LINE
  5
1909
330
1F
100
AcDbEntity
  8
SPOJOVACÍ
100
AcDbLine
 10
2034.294431791346
 20
294.5318607111061
 30
0.0
 11
2036.504853080492
 21
296.2348774286869
 31
0.0
  0
INSERT
  5
190A
330
1F
100
AcDbEntity
  8
POPIS
100
AcDbBlockReference
  2
E_PUNKT
 10
2017.299583736585
 20
231.9280519161442
 30
0.0
  0
LINE
  5
190B
330
1F
100
AcDbEntity
  8
SPOJOVACÍ
100
AcDbLine
 10
2032.084010502201
 20
296.2348774286869
 30
0.0
 11
2032.084010502201
 21
302.8324930120164
 31
0.0
  0
LINE
  5
190C
330
1F
100
AcDbEntity
  8
SPOJOVACÍ
100
AcDbLine
 10
2036.504853080492
 20
296.2348774286869
 30
0.0
 11
2036.504853080492
 21
302.8324930120164
 31
0.0
  0
LINE
  5
190D
330
1F
100
AcDbEntity
  8
SPOJOVACÍ
100
AcDbLine
 10
2036.504853080492
 20
297.6820613112971
 30
0.0
 11
2032.084010502201
 21
296.4975001125816
 31
0.0
  0
LINE
  5
190E
330
1F
100
AcDbEntity
  8
NOSNÉ KONSTRUKCE
100
AcDbLine
 10
2012.661616367139
 20
320.3249274663306
 30
0.0
 11
2012.661616367139
 21
279.4821773554598
 31
0.0
  0
LWPOLYLINE
  5
190F
330
1F
100
AcDbEntity
  8
NOSNÉ KONSTRUKCE
100
AcDbPolyline
 90
        3
 70
     0
 43
0.0
 10
2012.661616367139
 20
267.7127558610576
 10
2015.187703799139
 20
267.7127558610576
 10
2015.187703799139
 20
299.065472104567
  0
TEXT
  5
1910
330
1F
100
AcDbEntity
  8
POPIS
100
AcDbText
 10
1802.476136823242
 20
505.2340953463138
 30
0.0
 40
25.0
  1
03
 41
0.7
  7
SIMPLEX7
100
AcDbText
  0
TEXT
  5
1911
330
1F
100
AcDbEntity
  8
POPIS
100
AcDbText
 10
1804.707921020071
 20
565.1267185286655
 30
0.0
 40
25.0
  1
01
 41
0.7
  7
SIMPLEX7
100
AcDbText
  0
TEXT
  5
1912
330
1F
100
AcDbEntity
  8
POPIS
100
AcDbText
 10
1803.034085774525
 20
375.0088920119936
 30
0.0
 40
25.0
  1
06
 41
0.7
  7
SIMPLEX7
100
AcDbText
  0
TEXT
  5
1913
330
1F
100
AcDbEntity
  8
POPIS
100
AcDbText
 10
1803.034085774525
 20
411.4916407061768
 30
0.0
 40
25.0
  1
05
 41
0.7
  7
SIMPLEX7
100
AcDbText
  0
TEXT
  5
1914
330
1F
100
AcDbEntity
  8
POPIS
100
AcDbText
 10
1803.034085774525
 20
444.3261162602442
 30
0.0
 40
25.0
  1
04
 41
0.7
  7
SIMPLEX7
100
AcDbText
  0
LINE
  5
1915
330
1F
100
AcDbEntity
  8
POPIS
100
AcDbLine
 10
1843.011572117793
 20
457.7694577096147
 30
0.0
 11
1977.49384694728
 21
457.7694577096139
 31
0.0
  0
LINE
  5
1916
330
1F
100
AcDbEntity
  8
POPIS
100
AcDbLine
 10
1843.011572117793
 20
388.4522334613642
 30
0.0
 11
1977.493846947282
 21
388.4522334613633
 31
0.0
  0
LINE
  5
1917
330
1F
100
AcDbEntity
  8
POPIS
100
AcDbLine
 10
1843.011572117793
 20
424.9349821555473
 30
0.0
 11
1977.49384694728
 21
424.9349821555464
 31
0.0
  0
LINE
  5
1918
330
1F
100
AcDbEntity
  8
NOSNÉ KONSTRUKCE
100
AcDbLine
 10
2012.661616367139
 20
332.0943489607328
 30
0.0
 11
2010.28394057936
 21
332.0943489607328
 31
0.0
  0
LINE
  5
1919
330
1F
100
AcDbEntity
  8
POPIS
100
AcDbLine
 10
2015.187703799139
 20
332.0943489607328
 30
0.0
 11
1977.493846947282
 21
388.4522334613633
 31
0.0
  0
INSERT
  5
191A
330
1F
100
AcDbEntity
  8
POPIS
100
AcDbBlockReference
  2
E_PUNKT
 10
2015.160093423514
 20
332.0652806298606
 30
0.0
  0
LWPOLYLINE
  5
191B
330
1F
100
AcDbEntity
  8
STAVBA OBRYS
  6
DASHED
100
AcDbPolyline
 90
        4
 70
     1
 43
0.0
 10
2065.176689641365
 20
406.7021708341448
 10
2070.549970966218
 20
406.7021708341448
 10
2070.549970966218
 20
456.8217428531673
 10
2065.176689641365
 20
456.8217428531673
  0
LINE
  5
191C
330
1F
100
AcDbEntity
  8
POPIS
100
AcDbLine
 10
1843.011572117793
 20
518.6774367956844
 30
0.0
 11
2025.326888177704
 21
518.6774367956844
 31
0.0
  0
LINE
  5
191D
330
1F
100
AcDbEntity
  8
POPIS
100
AcDbLine
 10
1843.011572117793
 20
578.570059978036
 30
0.0
 11
2005.848102573116
 21
578.5700599780351
 31
0.0
  0
INSERT
  5
191E
330
1F
100
AcDbEntity
  8
POPIS
100
AcDbBlockReference
  2
E_PUNKT
 10
2025.299277802076
 20
518.6483684648123
 30
0.0
  0
LINE
  5
191F
330
1F
100
AcDbEntity
  8
STAVBA OBRYS
100
AcDbLine
 10
2385.440973147757
 20
642.7390882783205
 30
0.0
 11
2385.440973147757
 21
462.5266571386476
 31
0.0
  0
HATCH
  5
1920
330
1F
100
AcDbEntity
  8
STAVBA OBRYS
100
AcDbHatch
 10
0.0
 20
0.0
 30
0.0
210
0.0
220
0.0
230
1.0
  2
BRICK
 70
     0
 71
     0
 91
        3
 92
        7
 72
     0
 73
     1
 93
       27
 10
2592.386814953715
 20
462.5266571386476
 10
2385.440973147757
 20
462.5266571386476
 10
2385.440973147757
 20
637.2843584861424
 10
2148.848102573118
 20
637.2843584861424
 10
2148.848102573112
 20
438.324456843657
 10
2230.920302198843
 20
438.3244568436561
 10
2234.709163340399
 20
431.761956843657
 10
2230.920302198843
 20
425.199456843657
 10
2148.848102573112
 20
425.199456843657
 10
2148.84810257311
 20
348.7928102405279
 10
2171.467275848186
 20
334.4076310511494
 10
2226.393775815802
 20
334.4076310511485
 10
2230.182636957361
 20
327.8451310511494
 10
2226.393775815804
 20
321.2826310511485
 10
2148.84810257311
 20
321.2826310511503
 10
2148.848102573109
 20
227.5266571386477
 10
2242.28560257311
 20
227.5266571386477
 10
2242.28560257311
 20
305.0352114615237
 10
2248.848102573111
 20
308.8240726030802
 10
2255.410602573112
 20
305.0352114615237
 10
2255.410602573109
 20
227.5266571386477
 10
2356.751914674165
 20
227.5266571386477
 10
2356.751914674165
 20
309.9417184466532
 10
2363.314414674165
 20
313.7305795882088
 10
2369.876914674168
 20
309.9417184466513
 10
2369.876914674164
 20
227.5266571386477
 10
2606.373156659694
 20
227.5266571386477
 97
        0
 92
       24
 93
        4
 72
     1
 10
2174.438090604446
 20
424.8349940136307
 11
2223.295233461589
 21
424.8349940136307
 72
     1
 10
2223.295233461591
 20
424.8349940136307
 11
2223.295233461591
 21
394.8349940136307
 72
     1
 10
2223.295233461591
 20
394.8349940136307
 11
2174.438090604448
 21
394.8349940136307
 72
     1
 10
2174.438090604446
 20
394.8349940136307
 11
2174.438090604446
 21
424.8349940136307
 97
        0
 92
       24
 93
        4
 72
     1
 10
2270.085488546934
 20
253.2573226663283
 11
2270.085488546934
 21
302.1144655234714
 72
     1
 10
2270.085488546934
 20
302.1144655234706
 11
2300.085488546934
 21
302.1144655234706
 72
     1
 10
2300.085488546934
 20
302.1144655234706
 11
2300.085488546934
 21
253.2573226663274
 72
     1
 10
2300.085488546934
 20
253.2573226663283
 11
2270.085488546934
 21
253.2573226663283
 97
        0
 75
     0
 76
     1
 52
0.0
 41
10.0
 77
     0
 78
     3
 53
0.0
 43
-4146.436318553286
 44
31.28529554461272
 45
0.0
 46
63.5
 79
     0
 53
90.0
 43
-4146.436318553286
 44
31.28529554461272
 45
-127.0
 46
0.0000000000000078
 79
     2
 49
63.5
 49
-63.5
 53
90.0
 43
-4082.936318553286
 44
31.28529554461272
 45
-127.0
 46
0.0000000000000078
 79
     2
 49
-63.5
 49
63.5
 47
3.453225100644859
 98
        1
 10
2427.491904219412
 20
355.7078920926018
  0
LINE
  5
1921
330
1F
100
AcDbEntity
  8
STAVBA OBRYS
100
AcDbLine
 10
2148.848102573109
 20
227.5266571386477
 30
0.0
 11
2148.848102573116
 21
637.2843584861424
 31
0.0
  0
LINE
  5
1922
330
1F
100
AcDbEntity
  8
STAVBA OBRYS
  6
DASHDOT2
100
AcDbLine
 10
2363.314414674165
 20
115.8131427123529
 30
0.0
 11
2363.314414674165
 21
328.5896317784512
 31
0.0
  0
LINE
  5
1923
330
1F
100
AcDbEntity
  8
SPOJOVACÍ
  6
DASHED
100
AcDbLine
 10
2230.182636957359
 20
327.8451310511485
 30
0.0
 11
2226.393775815802
 21
321.2826310511485
 31
0.0
  0
DIMENSION
  5
1924
330
1F
100
AcDbEntity
  8
POPIS
100
AcDbDimension
  2
*D2
 10
2301.335488546934
 20
227.5266571386477
 30
0.0
 11
2299.460488546934
 21
277.6858940948985
 31
0.0
 70
    32
  1
100
 71
     5
 42
100.3184739125008
  3
ISO-25
100
AcDbAlignedDimension
 13
2277.234126976535
 23
327.8451310511485
 33
0.0
 14
2287.603040402042
 24
227.5266571386477
 34
0.0
 50
90.0
100
AcDbRotatedDimension
  0
LINE
  5
1925
330
1F
100
AcDbEntity
  8
SPOJOVACÍ
  6
DASHED
100
AcDbLine
 10
2220.807636957359
 20
327.8451310511485
 30
0.0
 11
2217.560041693168
 21
322.2201310511485
 31
0.0
  0
HATCH
  5
1926
330
1F
100
AcDbEntity
  8
NOSNÉ KONSTRUKCE
100
AcDbHatch
 10
0.0
 20
0.0
 30
0.0
210
0.0
220
0.0
230
1.0
  2
ANSI37
 70
     0
 71
     0
 91
        1
 92
        7
 72
     0
 73
     1
 93
        4
 10
2148.848102573109
 20
353.2384947206832
 10
2145.848102573109
 20
353.2384947206832
 10
2145.848102573105
 20
302.451767381612
 10
2148.848102573109
 20
302.451767381612
 97
        0
 75
     0
 76
     1
 52
0.0
 41
1.0
 77
     0
 78
     2
 53
45.00000000000001
 43
1625.880551007298
 44
-9.420045516982668
 45
-2.245064030267287
 46
2.245064030267288
 79
     0
 53
135.0
 43
1625.880551007298
 44
-9.420045516982668
 45
-2.245064030267288
 46
-2.245064030267287
 79
     0
 47
0.13614220447659
 98
        1
 10
2147.935293921295
 20
335.3752294332811
  0
HATCH
  5
1927
330
1F
100
AcDbEntity
  8
NOSNÉ KONSTRUKCE
100
AcDbHatch
 10
0.0
 20
0.0
 30
0.0
210
0.0
220
0.0
230
1.0
  2
ANSI37
 70
     0
 71
     0
 91
        1
 92
        7
 72
     0
 73
     1
 93
        4
 10
2148.885221492928
 20
353.2384947206832
 10
2145.885221492928
 20
353.2384947206832
 10
2145.885221492926
 20
302.451767381612
 10
2148.885221492928
 20
302.451767381612
 97
        0
 75
     0
 76
     1
 52
0.0
 41
1.0
 77
     0
 78
     2
 53
45.00000000000001
 43
1625.917669927119
 44
-9.420045516982668
 45
-2.245064030267287
 46
2.245064030267288
 79
     0
 53
135.0
 43
1625.917669927119
 44
-9.420045516982668
 45
-2.245064030267288
 46
-2.245064030267287
 79
     0
 47
0.13614220447659
 98
        1
 10
2147.972412841114
 20
335.3752294332811
  0
ARC
  5
1928
330
1F
100
AcDbEntity
  8
SPOJOVACÍ
100
AcDbCircle
 10
2139.726360071765
 20
327.8451310511503
 30
0.0
 40
6.701689614562111
100
AcDbArc
 50
135.6170676673795
 51
224.3829323326205
  0
LINE
  5
1929
330
1F
100
AcDbEntity
  8
NOSNÉ KONSTRUKCE
100
AcDbLine
 10
2145.848102573105
 20
302.451767381612
 30
0.0
 11
2145.848102573109
 21
353.2384947206868
 31
0.0
  0
LINE
  5
192A
330
1F
100
AcDbEntity
  8
NOSNÉ KONSTRUKCE
100
AcDbLine
 10
2145.885221492926
 20
302.451767381612
 30
0.0
 11
2145.885221492928
 21
353.2384947206868
 31
0.0
  0
LINE
  5
192B
330
1F
100
AcDbEntity
  8
SPOJOVACÍ
100
AcDbLine
 10
2142.482180872128
 20
327.8451310511503
 30
0.0
 11
2142.482180872128
 21
313.7826310511503
 31
0.0
  0
LINE
  5
192C
330
1F
100
AcDbEntity
  8
SPOJOVACÍ
100
AcDbLine
 10
2142.482180872128
 20
327.8451310511503
 30
0.0
 11
2142.482180872128
 21
313.7826310511503
 31
0.0
  0
LINE
  5
192D
330
1F
100
AcDbEntity
  8
SPOJOVACÍ
100
AcDbLine
 10
2133.061789377023
 20
336.2826310511503
 30
0.0
 11
2133.061789377023
 21
319.4076310511503
 31
0.0
  0
LINE
  5
192E
330
1F
100
AcDbEntity
  8
SPOJOVACÍ
100
AcDbLine
 10
2139.614914377023
 20
338.1576310511503
 30
0.0
 11
2139.614914377023
 21
317.5326310511503
 31
0.0
  0
LINE
  5
192F
330
1F
100
AcDbEntity
  8
SPOJOVACÍ
100
AcDbLine
 10
2139.624289377023
 20
335.4223521416464
 30
0.0
 11
2139.624289377023
 21
313.7826310511503
 31
0.0
  0
LINE
  5
1930
330
1F
100
AcDbEntity
  8
NOSNÉ KONSTRUKCE
100
AcDbLine
 10
2142.885221492926
 20
309.2582444137391
 30
0.0
 11
2142.885221492928
 21
350.2384947206841
 31
0.0
  0
LINE
  5
1931
330
1F
100
AcDbEntity
  8
STAVBA OBRYS
100
AcDbLine
 10
2148.848102573109
 20
227.5266571386477
 30
0.0
 11
2606.373156659694
 21
227.5266571386477
 31
0.0
  0
LINE
  5
1932
330
1F
100
AcDbEntity
  8
STAVBA OBRYS
  6
DASHED
100
AcDbLine
 10
2369.876914674164
 20
309.9417184466523
 30
0.0
 11
2369.876914674164
 21
149.5713872140271
 31
0.0
  0
LINE
  5
1933
330
1F
100
AcDbEntity
  8
STAVBA OBRYS
  6
DASHED
100
AcDbLine
 10
2356.751914674165
 20
309.9417184466523
 30
0.0
 11
2356.751914674165
 21
149.5713872140271
 31
0.0
  0
LINE
  5
1934
330
1F
100
AcDbEntity
  8
NOSNÉ KONSTRUKCE
100
AcDbLine
 10
2223.454738903572
 20
139.6151122328659
 30
0.0
 11
2223.454738903576
 21
218.5266571386477
 31
0.0
  0
LINE
  5
1935
330
1F
100
AcDbEntity
  8
NOSNÉ KONSTRUKCE
100
AcDbLine
 10
2219.648261871458
 20
99.50371601998757
 30
0.0
 11
2219.648261871447
 21
227.5266571386504
 31
0.0
  0
LINE
  5
1936
330
1F
100
AcDbEntity
  8
NOSNÉ KONSTRUKCE
100
AcDbLine
 10
2218.210831460983
 20
99.50371601998757
 30
0.0
 11
2218.210831460972
 21
227.7321367324597
 31
0.0
  0
LINE
  5
1937
330
1F
100
AcDbEntity
  8
NOSNÉ KONSTRUKCE
100
AcDbLine
 10
2217.93812720706
 20
146.3182167518474
 30
0.0
 11
2216.261966594403
 21
146.3182167518474
 31
0.0
  0
LINE
  5
1938
330
1F
100
AcDbEntity
  8
NOSNÉ KONSTRUKCE
100
AcDbLine
 10
2215.929774365362
 20
152.7327941879133
 30
0.0
 11
2218.210831460977
 21
156.7379025479179
 31
0.0
  0
LINE
  5
1939
330
1F
100
AcDbEntity
  8
NOSNÉ KONSTRUKCE
100
AcDbLine
 10
2214.492343954887
 20
153.8737159892929
 30
0.0
 11
2218.210831460977
 21
159.530260819822
 31
0.0
  0
LINE
  5
193A
330
1F
100
AcDbEntity
  8
NOSNÉ KONSTRUKCE
100
AcDbLine
 10
2249.290843450569
 20
88.92537622508223
 30
0.0
 11
2237.521421956167
 21
88.92537622508223
 31
0.0
  0
LINE
  5
193B
330
1F
100
AcDbEntity
  8
NOSNÉ KONSTRUKCE
100
AcDbLine
 10
2249.290843450569
 20
91.30305201286081
 30
0.0
 11
2249.290843450569
 21
88.92537622508223
 31
0.0
  0
LINE
  5
193C
330
1F
100
AcDbEntity
  8
NOSNÉ KONSTRUKCE
100
AcDbLine
 10
2237.521421956167
 20
88.92537622508223
 30
0.0
 11
2237.521421956167
 21
91.30305201286081
 31
0.0
  0
LWPOLYLINE
  5
193D
330
1F
100
AcDbEntity
  8
NOSNÉ KONSTRUKCE
100
AcDbPolyline
 90
        3
 70
     0
 43
0.0
 10
2184.909250350894
 20
91.30305201286081
 10
2184.909250350894
 20
93.82913944486189
 10
2216.261966594403
 20
93.82913944486189
  0
LINE
  5
193E
330
1F
100
AcDbEntity
  8
SPOJOVACÍ
100
AcDbLine
 10
2198.576864271663
 20
90.4183988979488
 30
0.0
 11
2198.576864271663
 21
97.01601448127838
 31
0.0
  0
LINE
  5
193F
330
1F
100
AcDbEntity
  8
SPOJOVACÍ
100
AcDbLine
 10
2202.997706849953
 20
90.4183988979488
 30
0.0
 11
2202.997706849953
 21
97.01601448127838
 31
0.0
  0
LINE
  5
1940
330
1F
100
AcDbEntity
  8
SPOJOVACÍ
100
AcDbLine
 10
2202.997706849953
 20
93.09605153055997
 30
0.0
 11
2198.576864271663
 21
91.91149033184263
 31
0.0
  0
LINE
  5
1941
330
1F
100
AcDbEntity
  8
SPOJOVACÍ
100
AcDbLine
 10
2202.997706849953
 20
95.55698903055997
 30
0.0
 11
2198.576864271663
 21
94.37242783184172
 31
0.0
  0
LINE
  5
1942
330
1F
100
AcDbEntity
  8
SPOJOVACÍ
100
AcDbLine
 10
2202.997706849953
 20
96.7874577805618
 30
0.0
 11
2198.576864271663
 21
95.60289658184263
 31
0.0
  0
LINE
  5
1943
330
1F
100
AcDbEntity
  8
SPOJOVACÍ
100
AcDbLine
 10
2202.997706849953
 20
94.32652028055997
 30
0.0
 11
2198.576864271663
 21
93.1419590818408
 31
0.0
  0
LINE
  5
1944
330
1F
100
AcDbEntity
  8
SPOJOVACÍ
100
AcDbLine
 10
2195.250176185807
 20
97.01601448127838
 30
0.0
 11
2200.787285560807
 21
97.01601448127838
 31
0.0
  0
ARC
  5
1945
330
1F
100
AcDbEntity
  8
SPOJOVACÍ
100
AcDbCircle
 10
2200.787285560807
 20
92.70571441248137
 30
0.0
 40
7.016998426235272
100
AcDbArc
 50
37.89856980784575
 51
142.1014301921542
  0
LINE
  5
1946
330
1F
100
AcDbEntity
  8
SPOJOVACÍ
100
AcDbLine
 10
2200.787285560807
 20
97.01601448127838
 30
0.0
 11
2206.324394935807
 21
97.01601448127838
 31
0.0
  0
LINE
  5
1947
330
1F
100
AcDbEntity
  8
SPOJOVACÍ
100
AcDbLine
 10
2200.787285560807
 20
88.71538218036802
 30
0.0
 11
2202.997706849953
 21
90.4183988979488
 31
0.0
  0
LINE
  5
1948
330
1F
100
AcDbEntity
  8
SPOJOVACÍ
100
AcDbLine
 10
2200.787285560807
 20
88.71538218036802
 30
0.0
 11
2198.576864271663
 21
90.4183988979488
 31
0.0
  0
LINE
  5
1949
330
1F
100
AcDbEntity
  8
SPOJOVACÍ
100
AcDbLine
 10
2202.997706849953
 20
90.63511403055997
 30
0.0
 11
2199.508921105148
 21
89.70029670767543
 31
0.0
  0
LINE
  5
194A
330
1F
100
AcDbEntity
  8
SPOJOVACÍ
100
AcDbLine
 10
2202.997706849953
 20
91.86558278055906
 30
0.0
 11
2198.576864271663
 21
90.68102158184354
 31
0.0
  0
LINE
  5
194B
330
1F
100
AcDbEntity
  8
NOSNÉ KONSTRUKCE
100
AcDbLine
 10
2184.909250350894
 20
91.30305201286081
 30
0.0
 11
2184.909250350894
 21
88.92537622508223
 31
0.0
  0
LINE
  5
194C
330
1F
100
AcDbEntity
  8
NOSNÉ KONSTRUKCE
100
AcDbLine
 10
2196.678671845297
 20
88.92537622508223
 30
0.0
 11
2196.678671845297
 21
91.30305201286081
 31
0.0
  0
LINE
  5
194D
330
1F
100
AcDbEntity
  8
NOSNÉ KONSTRUKCE
100
AcDbLine
 10
2184.909250350894
 20
88.92537622508223
 30
0.0
 11
2196.678671845297
 21
88.92537622508223
 31
0.0
  0
ARC
  5
194E
330
1F
100
AcDbEntity
  8
NOSNÉ KONSTRUKCE
100
AcDbCircle
 10
2221.454738903572
 20
139.6151122328659
 30
0.0
 40
2.0
100
AcDbArc
 50
312.1069433990018
 51
0.0
  0
LINE
  5
194F
330
1F
100
AcDbEntity
  8
NOSNÉ KONSTRUKCE
100
AcDbLine
 10
2222.795771964585
 20
138.1313230533445
 30
0.0
 11
2219.648261871454
 21
135.2866365217117
 31
0.0
  0
LINE
  5
1950
330
1F
100
AcDbEntity
  8
SPOJOVACÍ
100
AcDbLine
 10
2214.878555801133
 20
115.1462887262126
 30
0.0
 11
2213.693994602417
 21
110.7254461479227
 31
0.0
  0
LINE
  5
1951
330
1F
100
AcDbEntity
  8
SPOJOVACÍ
100
AcDbLine
 10
2211.728355200943
 20
112.9358674370672
 30
0.0
 11
2213.431371918523
 21
115.1462887262126
 31
0.0
  0
LINE
  5
1952
330
1F
100
AcDbEntity
  8
SPOJOVACÍ
100
AcDbLine
 10
2211.728355200943
 20
112.9358674370672
 30
0.0
 11
2213.431371918523
 21
110.7254461479227
 31
0.0
  0
LINE
  5
1953
330
1F
100
AcDbEntity
  8
SPOJOVACÍ
100
AcDbLine
 10
2213.648087051134
 20
115.1462887262126
 30
0.0
 11
2212.71326972825
 21
111.6575029814097
 31
0.0
  0
LINE
  5
1954
330
1F
100
AcDbEntity
  8
SPOJOVACÍ
100
AcDbLine
 10
2216.109024551135
 20
115.1462887262126
 30
0.0
 11
2214.924463352417
 21
110.7254461479227
 31
0.0
  0
LINE
  5
1955
330
1F
100
AcDbEntity
  8
SPOJOVACÍ
100
AcDbLine
 10
2218.569962051135
 20
115.1462887262126
 30
0.0
 11
2217.385400852417
 21
110.7254461479227
 31
0.0
  0
LINE
  5
1956
330
1F
100
AcDbEntity
  8
SPOJOVACÍ
100
AcDbLine
 10
2219.800430801137
 20
115.1462887262126
 30
0.0
 11
2218.615869602417
 21
110.7254461479227
 31
0.0
  0
LINE
  5
1957
330
1F
100
AcDbEntity
  8
SPOJOVACÍ
100
AcDbLine
 10
2213.431371918523
 20
115.1462887262126
 30
0.0
 11
2220.028987501853
 21
115.1462887262126
 31
0.0
  0
LINE
  5
1958
330
1F
100
AcDbEntity
  8
SPOJOVACÍ
100
AcDbLine
 10
2217.339493301135
 20
115.1462887262126
 30
0.0
 11
2216.154932102415
 21
110.7254461479227
 31
0.0
  0
LINE
  5
1959
330
1F
100
AcDbEntity
  8
SPOJOVACÍ
100
AcDbLine
 10
2220.028987501853
 20
107.3987580620672
 30
0.0
 11
2220.028987501853
 21
112.9358674370672
 31
0.0
  0
LINE
  5
195A
330
1F
100
AcDbEntity
  8
SPOJOVACÍ
100
AcDbLine
 10
2220.028987501853
 20
112.9358674370672
 30
0.0
 11
2220.028987501853
 21
118.4729768120672
 31
0.0
  0
ARC
  5
195B
330
1F
100
AcDbEntity
  8
SPOJOVACÍ
100
AcDbCircle
 10
2215.718687433056
 20
112.9358674370672
 30
0.0
 40
7.016998426235272
100
AcDbArc
 50
307.8985698078451
 51
52.10143019215482
  0
LINE
  5
195C
330
1F
100
AcDbEntity
  8
NOSNÉ KONSTRUKCE
100
AcDbLine
 10
2219.648261871458
 20
99.50371601998757
 30
0.0
 11
2218.210831460983
 21
99.50371601998757
 31
0.0
  0
LINE
  5
195D
330
1F
100
AcDbEntity
  8
NOSNÉ KONSTRUKCE
100
AcDbLine
 10
2215.929774365362
 20
99.50371601998847
 30
0.0
 11
2214.492343954887
 21
99.50371601998757
 31
0.0
  0
LINE
  5
195E
330
1F
100
AcDbEntity
  8
SPOJOVACÍ
100
AcDbLine
 10
2213.431371918523
 20
110.7254461479227
 30
0.0
 11
2220.028987501853
 21
110.7254461479227
 31
0.0
  0
LINE
  5
195F
330
1F
100
AcDbEntity
  8
NOSNÉ KONSTRUKCE
100
AcDbLine
 10
2237.521421956167
 20
91.30305201286081
 30
0.0
 11
2196.678671845297
 21
91.30305201286081
 31
0.0
  0
LWPOLYLINE
  5
1960
330
1F
100
AcDbEntity
  8
NOSNÉ KONSTRUKCE
100
AcDbPolyline
 90
        3
 70
     0
 43
0.0
 10
2217.93812720706
 20
93.82913944486189
 10
2249.290843450569
 20
93.82913944486189
 10
2249.290843450569
 20
91.30305201286081
  0
LINE
  5
1961
330
1F
100
AcDbEntity
  8
NOSNÉ KONSTRUKCE
100
AcDbLine
 10
2214.492343954887
 20
99.50371601998757
 30
0.0
 11
2214.492343954887
 21
153.8737159892929
 31
0.0
  0
LINE
  5
1962
330
1F
100
AcDbEntity
  8
NOSNÉ KONSTRUKCE
100
AcDbLine
 10
2215.929774365362
 20
152.7327941879133
 30
0.0
 11
2215.929774365362
 21
99.50371601998847
 31
0.0
  0
LINE
  5
1963
330
1F
100
AcDbEntity
  8
NOSNÉ KONSTRUKCE
100
AcDbLine
 10
2217.93812720706
 20
93.82913944486189
 30
0.0
 11
2217.93812720706
 21
146.3182167518474
 31
0.0
  0
LINE
  5
1964
330
1F
100
AcDbEntity
  8
NOSNÉ KONSTRUKCE
100
AcDbLine
 10
2216.261966594403
 20
146.3182167518474
 30
0.0
 11
2216.261966594403
 21
93.82913944486189
 31
0.0
  0
LWPOLYLINE
  5
1965
330
1F
100
AcDbEntity
  8
STAVBA OBRYS
  6
DASHED
100
AcDbPolyline
 90
        4
 70
     1
 43
0.0
 10
2388.37420068368
 20
144.1981058891736
 10
2388.37420068368
 20
149.5713872140271
 10
2338.254628664657
 20
149.5713872140271
 10
2338.254628664657
 20
144.1981058891736
  0
ARC
  5
1966
330
1F
100
AcDbEntity
  8
NOSNÉ KONSTRUKCE
100
AcDbCircle
 10
2267.43498921052
 20
224.5266571386504
 30
0.0
 40
3.0
100
AcDbArc
 50
270.0
 51
0.0
  0
LINE
  5
1967
330
1F
100
AcDbEntity
  8
NOSNÉ KONSTRUKCE
100
AcDbLine
 10
2270.434759566029
 20
224.4895382188273
 30
0.0
 11
2219.648032226956
 21
224.48953821883
 31
0.0
  0
LINE
  5
1968
330
1F
100
AcDbEntity
  8
NOSNÉ KONSTRUKCE
100
AcDbLine
 10
2270.434759566029
 20
224.4524192990069
 30
0.0
 11
2219.648032226956
 21
224.4524192990096
 31
0.0
  0
LINE
  5
1969
330
1F
100
AcDbEntity
  8
SPOJOVACÍ
100
AcDbLine
 10
2248.897229877788
 20
304.4779088466451
 30
0.0
 11
2248.674963053404
 21
304.5374650627421
 31
0.0
  0
LINE
  5
196A
330
1F
100
AcDbEntity
  8
SPOJOVACÍ
100
AcDbLine
 10
2249.119700927971
 20
302.5432979084101
 30
0.0
 11
2248.465194778054
 21
302.718672302721
 31
0.0
  0
LINE
  5
196B
330
1F
100
AcDbEntity
  8
SPOJOVACÍ
100
AcDbLine
 10
2249.531428245391
 20
298.6829759062051
 30
0.0
 11
2248.073463845397
 21
299.0736362897763
 31
0.0
  0
LINE
  5
196C
330
1F
100
AcDbEntity
  8
SPOJOVACÍ
100
AcDbLine
 10
2249.33107676942
 20
300.6116599223945
 30
0.0
 11
2248.26468767946
 21
300.8973980178665
 31
0.0
  0
LINE
  5
196D
330
1F
100
AcDbEntity
  8
SPOJOVACÍ
  6
DASHED
100
AcDbLine
 10
2248.848102573111
 20
308.8240726030802
 30
0.0
 11
2255.410602573112
 21
305.0352114615237
 31
0.0
  0
LINE
  5
196E
330
1F
100
AcDbEntity
  8
SPOJOVACÍ
  6
DASHED
100
AcDbLine
 10
2248.848102573111
 20
308.8240726030802
 30
0.0
 11
2242.28560257311
 21
305.0352114615237
 31
0.0
  0
LINE
  5
196F
330
1F
100
AcDbEntity
  8
SPOJOVACÍ
100
AcDbLine
 10
2248.848102573109
 20
218.2657250227442
 30
0.0
 11
2234.785602573109
 21
218.2657250227442
 31
0.0
  0
LINE
  5
1970
330
1F
100
AcDbEntity
  8
SPOJOVACÍ
100
AcDbLine
 10
2234.785602573109
 20
221.1236165178492
 30
0.0
 11
2248.848102573109
 21
221.1236165178492
 31
0.0
  0
LINE
  5
1971
330
1F
100
AcDbEntity
  8
SPOJOVACÍ
100
AcDbLine
 10
2234.785602573109
 20
221.1236165178492
 30
0.0
 11
2248.848102573109
 21
221.1236165178492
 31
0.0
  0
LINE
  5
1972
330
1F
100
AcDbEntity
  8
NOSNÉ KONSTRUKCE
100
AcDbLine
 10
2267.43498921052
 20
221.5266571386476
 30
0.0
 11
2226.454738903576
 21
221.5266571386504
 31
0.0
  0
LINE
  5
1973
330
1F
100
AcDbEntity
  8
SPOJOVACÍ
100
AcDbLine
 10
2234.785602573109
 20
221.1236165178492
 30
0.0
 11
2234.785602573109
 21
218.2657250227442
 31
0.0
  0
LINE
  5
1974
330
1F
100
AcDbEntity
  8
SPOJOVACÍ
100
AcDbLine
 10
2250.745309931986
 20
283.3577172885746
 30
0.0
 11
2246.880802615604
 21
284.3932089031435
 31
0.0
  0
LINE
  5
1975
330
1F
100
AcDbEntity
  8
SPOJOVACÍ
100
AcDbLine
 10
2251.256970211512
 20
270.095618329877
 30
0.0
 11
2246.33677517025
 21
271.4139806177866
 31
0.0
  0
LINE
  5
1976
330
1F
100
AcDbEntity
  8
SPOJOVACÍ
100
AcDbLine
 10
2250.990160078479
 20
272.0421098895552
 30
0.0
 11
2246.385503391411
 21
273.2759239302798
 31
0.0
  0
LINE
  5
1977
330
1F
100
AcDbEntity
  8
SPOJOVACÍ
100
AcDbLine
 10
2251.325997759539
 20
262.577122454128
 30
0.0
 11
2246.239831556307
 21
263.9399565808538
 31
0.0
  0
LINE
  5
1978
330
1F
100
AcDbEntity
  8
SPOJOVACÍ
100
AcDbLine
 10
2251.323735467787
 20
264.4527286333762
 30
0.0
 11
2246.249293951861
 21
265.8124211396065
 31
0.0
  0
LINE
  5
1979
330
1F
100
AcDbEntity
  8
SPOJOVACÍ
100
AcDbLine
 10
2250.038123593571
 20
257.2972072968517
 30
0.0
 11
2247.925149017802
 21
257.8633771280568
 31
0.0
  0
LINE
  5
197A
330
1F
100
AcDbEntity
  8
SPOJOVACÍ
100
AcDbLine
 10
2250.190268036525
 20
259.1314403162308
 30
0.0
 11
2247.807734361704
 21
259.7698382903375
 31
0.0
  0
LINE
  5
197B
330
1F
100
AcDbEntity
  8
SPOJOVACÍ
100
AcDbLine
 10
2251.300790426732
 20
258.833876738597
 30
0.0
 11
2246.250699647902
 21
260.1870444844883
 31
0.0
  0
LINE
  5
197C
330
1F
100
AcDbEntity
  8
SPOJOVACÍ
100
AcDbLine
 10
2251.318335594683
 20
260.7041755250132
 30
0.0
 11
2246.240285995619
 21
262.0648348142079
 31
0.0
  0
LINE
  5
197D
330
1F
100
AcDbEntity
  8
SPOJOVACÍ
100
AcDbLine
 10
2251.026289378565
 20
277.6574290727743
 30
0.0
 11
2246.589874342033
 21
278.8461628991029
 31
0.0
  0
LINE
  5
197E
330
1F
100
AcDbEntity
  8
SPOJOVACÍ
100
AcDbLine
 10
2250.942998664814
 20
279.5547467522613
 30
0.0
 11
2246.703091215664
 21
280.6908265292444
 31
0.0
  0
LINE
  5
197F
330
1F
100
AcDbEntity
  8
SPOJOVACÍ
100
AcDbLine
 10
2250.849356787794
 20
281.4548380175859
 30
0.0
 11
2246.774263873383
 21
282.5467558730846
 31
0.0
  0
LINE
  5
1980
330
1F
100
AcDbEntity
  8
SPOJOVACÍ
100
AcDbLine
 10
2251.132570289486
 20
275.7539511885228
 30
0.0
 11
2246.512088365092
 21
276.9920055888054
 31
0.0
  0
LINE
  5
1981
330
1F
100
AcDbEntity
  8
SPOJOVACÍ
100
AcDbLine
 10
2251.066193667999
 20
273.8967367506469
 30
0.0
 11
2246.970518201384
 21
274.9941696843865
 31
0.0
  0
LINE
  5
1982
330
1F
100
AcDbEntity
  8
SPOJOVACÍ
100
AcDbLine
 10
2251.311506133944
 20
266.3310054735033
 30
0.0
 11
2246.26863193242
 21
267.6822395433331
 31
0.0
  0
LINE
  5
1983
330
1F
100
AcDbEntity
  8
SPOJOVACÍ
100
AcDbLine
 10
2251.289266019572
 20
268.2119646941886
 30
0.0
 11
2246.297805356231
 21
269.5494225479818
 31
0.0
  0
LINE
  5
1984
330
1F
100
AcDbEntity
  8
SPOJOVACÍ
100
AcDbLine
 10
2249.899332837423
 20
294.8343961678787
 30
0.0
 11
2247.718958523746
 21
295.4186257044251
 31
0.0
  0
LINE
  5
1985
330
1F
100
AcDbEntity
  8
SPOJOVACÍ
100
AcDbLine
 10
2250.067019127269
 20
292.9144647619326
 30
0.0
 11
2247.55572544324
 21
293.5873638765245
 31
0.0
  0
LINE
  5
1986
330
1F
100
AcDbEntity
  8
SPOJOVACÍ
100
AcDbLine
 10
2250.223947478225
 20
290.9974159370243
 30
0.0
 11
2247.366491790077
 21
291.7630688810717
 31
0.0
  0
LINE
  5
1987
330
1F
100
AcDbEntity
  8
SPOJOVACÍ
100
AcDbLine
 10
2250.466295363061
 20
287.1824790169952
 30
0.0
 11
2247.122413217639
 21
288.0784695374444
 31
0.0
  0
LINE
  5
1988
330
1F
100
AcDbEntity
  8
SPOJOVACÍ
100
AcDbLine
 10
2250.333001105282
 20
285.3431951057221
 30
0.0
 11
2246.996862404325
 21
286.2371107764814
 31
0.0
  0
LINE
  5
1989
330
1F
100
AcDbEntity
  8
SPOJOVACÍ
100
AcDbLine
 10
2250.37018045799
 20
289.0832329281896
 30
0.0
 11
2247.257425962598
 21
289.9172929814652
 31
0.0
  0
LINE
  5
198A
330
1F
100
AcDbEntity
  8
SPOJOVACÍ
100
AcDbLine
 10
2253.535602573109
 20
218.2657250227442
 30
0.0
 11
2253.535602573109
 21
213.5782250227442
 31
0.0
  0
LINE
  5
198B
330
1F
100
AcDbEntity
  8
SPOJOVACÍ
100
AcDbLine
 10
2259.160602573108
 20
213.5782250227442
 30
0.0
 11
2259.160602573108
 21
218.2657250227442
 31
0.0
  0
LINE
  5
198C
330
1F
100
AcDbEntity
  8
SPOJOVACÍ
100
AcDbLine
 10
2262.910602573108
 20
218.2657250227442
 30
0.0
 11
2262.910602573108
 21
221.1236165178492
 31
0.0
  0
ARC
  5
198D
330
1F
100
AcDbEntity
  8
SPOJOVACÍ
100
AcDbCircle
 10
2257.285602573108
 20
213.5782250227442
 30
0.0
 40
1.875
100
AcDbArc
 50
270.0
 51
0.0
  0
LINE
  5
198E
330
1F
100
AcDbEntity
  8
SPOJOVACÍ
100
AcDbLine
 10
2248.848102573109
 20
221.1236165178492
 30
0.0
 11
2262.910602573108
 21
221.1236165178492
 31
0.0
  0
LINE
  5
198F
330
1F
100
AcDbEntity
  8
SPOJOVACÍ
100
AcDbLine
 10
2248.848102573109
 20
221.1236165178492
 30
0.0
 11
2262.910602573108
 21
221.1236165178492
 31
0.0
  0
ARC
  5
1990
330
1F
100
AcDbEntity
  8
SPOJOVACÍ
100
AcDbCircle
 10
2255.410602573109
 20
213.5782250227442
 30
0.0
 40
1.875
100
AcDbArc
 50
180.0
 51
270.0
  0
LINE
  5
1991
330
1F
100
AcDbEntity
  8
SPOJOVACÍ
100
AcDbLine
 10
2249.335949775521
 20
225.6103542043459
 30
0.0
 11
2248.423349391698
 21
225.8548847402038
 31
0.0
  0
LINE
  5
1992
330
1F
100
AcDbEntity
  8
SPOJOVACÍ
100
AcDbLine
 10
2249.137129129493
 20
223.7886280358883
 30
0.0
 11
2248.555056231547
 21
223.9445939988285
 31
0.0
  0
LINE
  5
1993
330
1F
100
AcDbEntity
  8
SPOJOVACÍ
100
AcDbLine
 10
2244.160602573109
 20
218.2657250227442
 30
0.0
 11
2244.160602573109
 21
213.5782250227442
 31
0.0
  0
LINE
  5
1994
330
1F
100
AcDbEntity
  8
SPOJOVACÍ
100
AcDbLine
 10
2238.535602573108
 20
218.2657250227442
 30
0.0
 11
2238.535602573108
 21
218.2563500227437
 31
0.0
  0
LINE
  5
1995
330
1F
100
AcDbEntity
  8
SPOJOVACÍ
100
AcDbLine
 10
2238.535602573108
 20
218.2657250227442
 30
0.0
 11
2238.535602573108
 21
213.5782250227442
 31
0.0
  0
ARC
  5
1996
330
1F
100
AcDbEntity
  8
SPOJOVACÍ
100
AcDbCircle
 10
2240.410602573108
 20
213.5782250227442
 30
0.0
 40
1.875
100
AcDbArc
 50
180.0
 51
270.0
  0
ARC
  5
1997
330
1F
100
AcDbEntity
  8
SPOJOVACÍ
100
AcDbCircle
 10
2242.285602573109
 20
213.5782250227442
 30
0.0
 40
1.875
100
AcDbArc
 50
270.0
 51
0.0
  0
ARC
  5
1998
330
1F
100
AcDbEntity
  8
SPOJOVACÍ
100
AcDbCircle
 10
2248.848102573109
 20
218.3677957174862
 30
0.0
 40
6.701689614562111
100
AcDbArc
 50
225.6170676674555
 51
314.3829323325444
  0
LINE
  5
1999
330
1F
100
AcDbEntity
  8
SPOJOVACÍ
100
AcDbLine
 10
2240.410602573108
 20
211.7032250227442
 30
0.0
 11
2257.285602573108
 21
211.7032250227442
 31
0.0
  0
LINE
  5
199A
330
1F
100
AcDbEntity
  8
SPOJOVACÍ
100
AcDbLine
 10
2238.535602573108
 20
218.2563500227437
 30
0.0
 11
2259.160602573108
 21
218.2563500227437
 31
0.0
  0
LINE
  5
199B
330
1F
100
AcDbEntity
  8
SPOJOVACÍ
100
AcDbLine
 10
2241.270881482612
 20
218.2657250227442
 30
0.0
 11
2262.910602573108
 21
218.2657250227442
 31
0.0
  0
LINE
  5
199C
330
1F
100
AcDbEntity
  8
SPOJOVACÍ
100
AcDbLine
 10
2250.333001105282
 20
236.593195105724
 30
0.0
 11
2247.169545249398
 21
237.4408405475991
 31
0.0
  0
LINE
  5
199D
330
1F
100
AcDbEntity
  8
SPOJOVACÍ
100
AcDbLine
 10
2250.466295363061
 20
238.432479016997
 30
0.0
 11
2247.035873983258
 21
239.3516576554123
 31
0.0
  0
LINE
  5
199E
330
1F
100
AcDbEntity
  8
SPOJOVACÍ
100
AcDbLine
 10
2250.190268036525
 20
234.7564403162308
 30
0.0
 11
2247.31383992608
 21
235.527176905511
 31
0.0
  0
LINE
  5
199F
330
1F
100
AcDbEntity
  8
SPOJOVACÍ
100
AcDbLine
 10
2250.038123593571
 20
232.9222072968517
 30
0.0
 11
2247.468818762976
 21
233.6106504513203
 31
0.0
  0
LINE
  5
19A0
330
1F
100
AcDbEntity
  8
SPOJOVACÍ
100
AcDbLine
 10
2249.876594319482
 20
231.0904889353991
 30
0.0
 11
2247.634544044833
 21
231.691244495881
 31
0.0
  0
LINE
  5
19A1
330
1F
100
AcDbEntity
  8
SPOJOVACÍ
100
AcDbLine
 10
2249.705705875192
 20
229.2612783560429
 30
0.0
 11
2247.811079627245
 21
229.7689419291385
 31
0.0
  0
LINE
  5
19A2
330
1F
100
AcDbEntity
  8
SPOJOVACÍ
100
AcDbLine
 10
2249.525483050645
 20
227.4345689163377
 30
0.0
 11
2247.998490973786
 21
227.8437252101797
 31
0.0
  0
LINE
  5
19A3
330
1F
100
AcDbEntity
  8
SPOJOVACÍ
100
AcDbLine
 10
2251.300790426732
 20
253.208876738597
 30
0.0
 11
2246.342137030314
 21
254.5375439117127
 31
0.0
  0
LINE
  5
19A4
330
1F
100
AcDbEntity
  8
SPOJOVACÍ
100
AcDbLine
 10
2251.066193667999
 20
249.5217367506469
 30
0.0
 11
2246.453721005951
 21
250.7576450755535
 31
0.0
  0
LINE
  5
19A5
330
1F
100
AcDbEntity
  8
SPOJOVACÍ
100
AcDbLine
 10
2250.990160078479
 20
247.6671098895552
 30
0.0
 11
2246.524845782733
 21
248.8635872490525
 31
0.0
  0
LINE
  5
19A6
330
1F
100
AcDbEntity
  8
SPOJOVACÍ
100
AcDbLine
 10
2250.904503579295
 20
245.8150614793397
 30
0.0
 11
2246.6062598606
 21
246.9667724126342
 31
0.0
  0
LINE
  5
19A7
330
1F
100
AcDbEntity
  8
SPOJOVACÍ
100
AcDbLine
 10
2251.132570289486
 20
251.3789511885228
 30
0.0
 11
2246.392834626138
 21
252.6489595318538
 31
0.0
  0
LINE
  5
19A8
330
1F
100
AcDbEntity
  8
SPOJOVACÍ
100
AcDbLine
 10
2250.704453157057
 20
242.1186648284241
 30
0.0
 11
2246.800166153527
 21
243.1648153780392
 31
0.0
  0
LINE
  5
19A9
330
1F
100
AcDbEntity
  8
SPOJOVACÍ
100
AcDbLine
 10
2250.809257240114
 20
243.9655826590045
 30
0.0
 11
2246.698015461617
 21
245.0671865734424
 31
0.0
  0
LINE
  5
19AA
330
1F
100
AcDbEntity
  8
SPOJOVACÍ
100
AcDbLine
 10
2250.590122467285
 20
240.2742996444188
 30
0.0
 11
2246.912766878562
 21
241.2596441046975
 31
0.0
  0
LINE
  5
19AB
330
1F
100
AcDbEntity
  8
SPOJOVACÍ
100
AcDbLine
 10
2249.876594319482
 20
255.4654889353991
 30
0.0
 11
2248.045413616022
 21
255.9561523260867
 31
0.0
  0
LINE
  5
19AC
330
1F
100
AcDbEntity
  8
SPOJOVACÍ
100
AcDbLine
 10
2251.23621135653
 20
255.101180648306
 30
0.0
 11
2246.301579870814
 21
256.4234111698491
 31
0.0
  0
LINE
  5
19AD
330
1F
100
AcDbEntity
  8
SPOJOVACÍ
100
AcDbLine
 10
2251.300790426732
 20
256.958876738597
 30
0.0
 11
2246.271116040337
 21
258.3065739286233
 31
0.0
  0
LINE
  5
19AE
330
1F
100
AcDbEntity
  8
SPOJOVACÍ
  6
DASHED
100
AcDbLine
 10
2248.848102573111
 20
299.4490726030802
 30
0.0
 11
2254.473102573112
 21
296.2014773388895
 31
0.0
  0
LINE
  5
19AF
330
1F
100
AcDbEntity
  8
SPOJOVACÍ
  6
DASHED
100
AcDbLine
 10
2248.848102573111
 20
299.4490726030802
 30
0.0
 11
2243.22310257311
 21
296.2014773388895
 31
0.0
  0
LINE
  5
19B0
330
1F
100
AcDbEntity
  8
SPOJOVACÍ
100
AcDbLine
 10
2249.720824463485
 20
296.7572273425161
 30
0.0
 11
2247.891546202041
 21
297.2473809754031
 31
0.0
  0
LINE
  5
19B1
330
1F
100
AcDbEntity
  8
SPOJOVACÍ
  6
DASHDOT2
100
AcDbLine
 10
2248.848102573109
 20
208.7630150494154
 30
0.0
 11
2248.848102573111
 21
323.6831247933226
 31
0.0
  0
LINE
  5
19B2
330
1F
100
AcDbEntity
  8
SPOJOVACÍ
  6
DASHED
100
AcDbLine
 10
2255.410602573112
 20
305.0352114615237
 30
0.0
 11
2255.410602573109
 21
223.9361165178501
 31
0.0
  0
LINE
  5
19B3
330
1F
100
AcDbEntity
  8
SPOJOVACÍ
  6
DASHED
100
AcDbLine
 10
2242.28560257311
 20
305.0352114615237
 30
0.0
 11
2242.285602573109
 21
223.9361165178501
 31
0.0
  0
LINE
  5
19B4
330
1F
100
AcDbEntity
  8
SPOJOVACÍ
100
AcDbLine
 10
2139.624289377023
 20
323.1576310511503
 30
0.0
 11
2134.936789377023
 21
323.1576310511503
 31
0.0
  0
LINE
  5
19B5
330
1F
100
AcDbEntity
  8
SPOJOVACÍ
100
AcDbLine
 10
2134.936789377023
 20
317.5326310511503
 30
0.0
 11
2139.624289377023
 21
317.5326310511503
 31
0.0
  0
LINE
  5
19B6
330
1F
100
AcDbEntity
  8
SPOJOVACÍ
100
AcDbLine
 10
2139.624289377023
 20
313.7826310511503
 30
0.0
 11
2142.482180872128
 21
313.7826310511503
 31
0.0
  0
ARC
  5
19B7
330
1F
100
AcDbEntity
  8
SPOJOVACÍ
100
AcDbCircle
 10
2134.936789377023
 20
319.4076310511503
 30
0.0
 40
1.875
100
AcDbArc
 50
180.0
 51
270.0
  0
ARC
  5
19B8
330
1F
100
AcDbEntity
  8
NOSNÉ KONSTRUKCE
100
AcDbCircle
 10
2139.885221492926
 20
309.2582444137391
 30
0.0
 40
3.0
100
AcDbArc
 50
270.0
 51
0.0
  0
ARC
  5
19B9
330
1F
100
AcDbEntity
  8
SPOJOVACÍ
100
AcDbCircle
 10
2134.936789377023
 20
321.2826310511503
 30
0.0
 40
1.875
100
AcDbArc
 50
90.0
 51
180.0
  0
ARC
  5
19BA
330
1F
100
AcDbEntity
  8
NOSNÉ KONSTRUKCE
100
AcDbCircle
 10
2226.454738903576
 20
218.5266571386477
 30
0.0
 40
3.0
100
AcDbArc
 50
90.0
 51
180.0
  0
LINE
  5
19BB
330
1F
100
AcDbEntity
  8
SPOJOVACÍ
  6
DASHED
100
AcDbLine
 10
2226.393775815802
 20
321.2826310511485
 30
0.0
 11
2145.294680872128
 21
321.2826310511503
 31
0.0
  0
LINE
  5
19BC
330
1F
100
AcDbEntity
  8
STAVBA OBRYS
  6
DASHED
100
AcDbLine
 10
2363.314414674165
 20
313.7305795882088
 30
0.0
 11
2369.876914674164
 21
309.9417184466523
 31
0.0
  0
LINE
  5
19BD
330
1F
100
AcDbEntity
  8
STAVBA OBRYS
  6
DASHED
100
AcDbLine
 10
2363.314414674165
 20
313.7305795882088
 30
0.0
 11
2356.751914674165
 21
309.9417184466523
 31
0.0
  0
LINE
  5
19BE
330
1F
100
AcDbEntity
  8
NOSNÉ KONSTRUKCE
100
AcDbLine
 10
2270.43498921052
 20
224.5266571386504
 30
0.0
 11
2270.43498921052
 21
227.5266571386485
 31
0.0
  0
LINE
  5
19BF
330
1F
100
AcDbEntity
  8
STAVBA OBRYS
100
AcDbLine
 10
2385.440973147757
 20
462.5266571386476
 30
0.0
 11
2592.386814953715
 21
462.5266571386476
 31
0.0
  0
LINE
  5
19C0
330
1F
100
AcDbEntity
  8
SPOJOVACÍ
  6
DASHED
100
AcDbLine
 10
2230.182636957359
 20
327.8451310511485
 30
0.0
 11
2226.393775815802
 21
334.4076310511485
 31
0.0
  0
LINE
  5
19C1
330
1F
100
AcDbEntity
  8
STAVBA OBRYS
  6
DASHED
100
AcDbLine
 10
2234.709163340399
 20
431.761956843657
 30
0.0
 11
2230.920302198843
 21
425.199456843657
 31
0.0
  0
LINE
  5
19C2
330
1F
100
AcDbEntity
  8
STAVBA OBRYS
  6
DASHED
100
AcDbLine
 10
2234.709163340399
 20
431.761956843657
 30
0.0
 11
2230.920302198843
 21
438.324456843657
 31
0.0
  0
LINE
  5
19C3
330
1F
100
AcDbEntity
  8
SPOJOVACÍ
100
AcDbLine
 10
2210.441797282468
 20
326.3230531662697
 30
0.0
 11
2211.275857335744
 21
329.4358076616612
 31
0.0
  0
LINE
  5
19C4
330
1F
100
AcDbEntity
  8
SPOJOVACÍ
100
AcDbLine
 10
2191.454182684156
 20
325.4362634127468
 30
0.0
 11
2192.772544972065
 21
330.3564584540093
 31
0.0
  0
LINE
  5
19C5
330
1F
100
AcDbEntity
  8
SPOJOVACÍ
100
AcDbLine
 10
2193.400674243834
 20
325.7030735457796
 30
0.0
 11
2194.634488284558
 21
330.3077302328487
 31
0.0
  0
LINE
  5
19C6
330
1F
100
AcDbEntity
  8
SPOJOVACÍ
100
AcDbLine
 10
2208.541043371274
 20
326.2269382611997
 30
0.0
 11
2209.437033891723
 21
329.5708204066189
 31
0.0
  0
LINE
  5
19C7
330
1F
100
AcDbEntity
  8
SPOJOVACÍ
100
AcDbLine
 10
2183.935686808406
 20
325.3672358647203
 30
0.0
 11
2185.298520935131
 21
330.4534020679524
 31
0.0
  0
LINE
  5
19C8
330
1F
100
AcDbEntity
  8
SPOJOVACÍ
100
AcDbLine
 10
2185.811292987655
 20
325.3694981564725
 30
0.0
 11
2187.170985493885
 21
330.4439396723977
 31
0.0
  0
LINE
  5
19C9
330
1F
100
AcDbEntity
  8
SPOJOVACÍ
100
AcDbLine
 10
2174.567441092877
 20
325.3924431975259
 30
0.0
 11
2175.896108265991
 21
330.3510965939461
 31
0.0
  0
LINE
  5
19CA
330
1F
100
AcDbEntity
  8
SPOJOVACÍ
100
AcDbLine
 10
2170.880301104925
 20
325.6270399562603
 30
0.0
 11
2172.116209429832
 21
330.2395126183077
 31
0.0
  0
LINE
  5
19CB
330
1F
100
AcDbEntity
  8
SPOJOVACÍ
100
AcDbLine
 10
2169.025674243834
 20
325.7030735457796
 30
0.0
 11
2170.222151603331
 21
330.1683878415273
 31
0.0
  0
LINE
  5
19CC
330
1F
100
AcDbEntity
  8
SPOJOVACÍ
100
AcDbLine
 10
2167.173625833618
 20
325.7887300449641
 30
0.0
 11
2168.325336766913
 21
330.0869737636588
 31
0.0
  0
LINE
  5
19CD
330
1F
100
AcDbEntity
  8
SPOJOVACÍ
100
AcDbLine
 10
2172.737515542801
 20
325.5606633347737
 30
0.0
 11
2174.007523886131
 21
330.3003989981228
 31
0.0
  0
LINE
  5
19CE
330
1F
100
AcDbEntity
  8
SPOJOVACÍ
100
AcDbLine
 10
2163.477229182702
 20
325.988780467202
 30
0.0
 11
2164.523379732318
 21
329.893067470732
 31
0.0
  0
LINE
  5
19CF
330
1F
100
AcDbEntity
  8
SPOJOVACÍ
100
AcDbLine
 10
2165.324147013283
 20
325.8839763841436
 30
0.0
 11
2166.425750927721
 21
329.9952181626434
 31
0.0
  0
LINE
  5
19D0
330
1F
100
AcDbEntity
  8
SPOJOVACÍ
100
AcDbLine
 10
2176.824053289677
 20
326.8166393047762
 30
0.0
 11
2177.314716680364
 21
328.6478200082368
 31
0.0
  0
LINE
  5
19D1
330
1F
100
AcDbEntity
  8
SPOJOVACÍ
100
AcDbLine
 10
2178.655771651131
 20
326.6551100306882
 30
0.0
 11
2179.221941482335
 21
328.7680846064562
 31
0.0
  0
LINE
  5
19D2
330
1F
100
AcDbEntity
  8
SPOJOVACÍ
100
AcDbLine
 10
2180.490004670509
 20
326.5029655877337
 30
0.0
 11
2181.128402644615
 21
328.885499262555
 31
0.0
  0
LINE
  5
19D3
330
1F
100
AcDbEntity
  8
SPOJOVACÍ
100
AcDbLine
 10
2180.192441092877
 20
325.3924431975259
 30
0.0
 11
2181.545608838767
 21
330.4425339763569
 31
0.0
  0
LINE
  5
19D4
330
1F
100
AcDbEntity
  8
SPOJOVACÍ
100
AcDbLine
 10
2178.317441092877
 20
325.3924431975259
 30
0.0
 11
2179.665138282902
 21
330.4221175839214
 31
0.0
  0
LINE
  5
19D5
330
1F
100
AcDbEntity
  8
SPOJOVACÍ
100
AcDbLine
 10
2176.459745002584
 20
325.4570222677287
 30
0.0
 11
2177.781975524128
 21
330.3916537534454
 31
0.0
  0
LINE
  5
19D6
330
1F
100
AcDbEntity
  8
SPOJOVACÍ
100
AcDbLine
 10
2182.062739879293
 20
325.3748980295753
 30
0.0
 11
2183.423399168487
 21
330.4529476286383
 31
0.0
  0
LINE
  5
19D7
330
1F
100
AcDbEntity
  8
SPOJOVACÍ
100
AcDbLine
 10
2206.70175946
 20
326.360232518978
 30
0.0
 11
2207.59567513076
 21
329.6963712199343
 31
0.0
  0
LINE
  5
19D8
330
1F
100
AcDbEntity
  8
SPOJOVACÍ
100
AcDbLine
 10
2199.015993427052
 20
325.6669442456935
 30
0.0
 11
2200.204727253381
 21
330.1033592822272
 31
0.0
  0
LINE
  5
19D9
330
1F
100
AcDbEntity
  8
SPOJOVACÍ
100
AcDbLine
 10
2200.91331110654
 20
325.7502349594473
 30
0.0
 11
2202.049390883523
 21
329.990142408595
 31
0.0
  0
LINE
  5
19DA
330
1F
100
AcDbEntity
  8
SPOJOVACÍ
100
AcDbLine
 10
2202.813402371865
 20
325.8438768364652
 30
0.0
 11
2203.905320227364
 21
329.9189697508749
 31
0.0
  0
LINE
  5
19DB
330
1F
100
AcDbEntity
  8
SPOJOVACÍ
100
AcDbLine
 10
2204.716281642853
 20
325.9479236922728
 30
0.0
 11
2205.751773257423
 21
329.8124310086563
 31
0.0
  0
LINE
  5
19DC
330
1F
100
AcDbEntity
  8
SPOJOVACÍ
100
AcDbLine
 10
2197.112515542801
 20
325.5606633347737
 30
0.0
 11
2198.350569943084
 21
330.1811452591667
 31
0.0
  0
LINE
  5
19DD
330
1F
100
AcDbEntity
  8
SPOJOVACÍ
100
AcDbLine
 10
2195.255301104925
 20
325.6270399562603
 30
0.0
 11
2196.352734038664
 21
329.7227154228752
 31
0.0
  0
LINE
  5
19DE
330
1F
100
AcDbEntity
  8
SPOJOVACÍ
100
AcDbLine
 10
2187.689569827782
 20
325.3817274903143
 30
0.0
 11
2189.040803897613
 21
330.4246016918408
 31
0.0
  0
LINE
  5
19DF
330
1F
100
AcDbEntity
  8
SPOJOVACÍ
100
AcDbLine
 10
2189.570529048467
 20
325.4039676046871
 30
0.0
 11
2190.90798690226
 21
330.3954282680282
 31
0.0
  0
LINE
  5
19E0
330
1F
100
AcDbEntity
  8
SPOJOVACÍ
  6
DASHED
100
AcDbLine
 10
2220.807636957359
 20
327.8451310511485
 30
0.0
 11
2217.560041693168
 21
333.4701310511485
 31
0.0
  0
LINE
  5
19E1
330
1F
100
AcDbEntity
  8
SPOJOVACÍ
100
AcDbLine
 10
2220.041540260484
 20
327.1618053788701
 30
0.0
 11
2220.432200644056
 21
328.6197697788614
 31
0.0
  0
LINE
  5
19E2
330
1F
100
AcDbEntity
  8
SPOJOVACÍ
100
AcDbLine
 10
2225.836473200925
 20
327.7960037464721
 30
0.0
 11
2225.896029417021
 21
328.0182705708542
 31
0.0
  0
LINE
  5
19E3
330
1F
100
AcDbEntity
  8
SPOJOVACÍ
100
AcDbLine
 10
2223.90186226269
 20
327.5735326962879
 30
0.0
 11
2224.077236657
 21
328.2280388462044
 31
0.0
  0
LINE
  5
19E4
330
1F
100
AcDbEntity
  8
SPOJOVACÍ
100
AcDbLine
 10
2221.970224276672
 20
327.3621568548409
 30
0.0
 11
2222.255962372146
 21
328.4285459447986
 31
0.0
  0
LINE
  5
19E5
330
1F
100
AcDbEntity
  8
SPOJOVACÍ
100
AcDbLine
 10
2218.115791696795
 20
326.9724091607744
 30
0.0
 11
2218.605945329682
 21
328.8016874222179
 31
0.0
  0
LINE
  5
19E6
330
1F
100
AcDbEntity
  8
SPOJOVACÍ
100
AcDbLine
 10
2216.192960522157
 20
326.7939007868375
 30
0.0
 11
2216.777190058702
 21
328.9742751005145
 31
0.0
  0
LINE
  5
19E7
330
1F
100
AcDbEntity
  8
SPOJOVACÍ
100
AcDbLine
 10
2214.273029116211
 20
326.6262144969908
 30
0.0
 11
2214.945928230803
 21
329.1375081810187
 31
0.0
  0
LINE
  5
19E8
330
1F
100
AcDbEntity
  8
SPOJOVACÍ
100
AcDbLine
 10
2212.355980291304
 20
326.4692861460347
 30
0.0
 11
2213.12163323535
 21
329.3267418341823
 31
0.0
  0
INSERT
  5
19E9
330
1F
100
AcDbEntity
  8
POPIS
100
AcDbBlockReference
  2
E_PUNKT
 10
2177.754365148501
 20
330.3625854225723
 30
0.0
  0
LINE
  5
19EA
330
1F
100
AcDbEntity
  8
NOSNÉ KONSTRUKCE
100
AcDbLine
 10
2145.885221492928
 20
353.2384947206841
 30
0.0
 11
2148.885221492928
 21
353.2384947206832
 31
0.0
  0
ARC
  5
19EB
330
1F
100
AcDbEntity
  8
NOSNÉ KONSTRUKCE
100
AcDbCircle
 10
2145.885221492928
 20
350.2384947206841
 30
0.0
 40
3.0
100
AcDbArc
 50
90.0
 51
180.0
  0
LINE
  5
19EC
330
1F
100
AcDbEntity
  8
SPOJOVACÍ
100
AcDbLine
 10
2139.624289377023
 20
332.5326310511503
 30
0.0
 11
2134.936789377023
 21
332.5326310511503
 31
0.0
  0
LINE
  5
19ED
330
1F
100
AcDbEntity
  8
SPOJOVACÍ
100
AcDbLine
 10
2142.482180872128
 20
341.9076310511503
 30
0.0
 11
2139.624289377023
 21
341.9076310511503
 31
0.0
  0
LINE
  5
19EE
330
1F
100
AcDbEntity
  8
SPOJOVACÍ
100
AcDbLine
 10
2139.624289377023
 20
338.1576310511503
 30
0.0
 11
2139.614914377023
 21
338.1576310511503
 31
0.0
  0
LINE
  5
19EF
330
1F
100
AcDbEntity
  8
SPOJOVACÍ
100
AcDbLine
 10
2139.624289377023
 20
338.1576310511503
 30
0.0
 11
2134.936789377023
 21
338.1576310511503
 31
0.0
  0
ARC
  5
19F0
330
1F
100
AcDbEntity
  8
SPOJOVACÍ
100
AcDbCircle
 10
2134.936789377023
 20
336.2826310511503
 30
0.0
 40
1.875
100
AcDbArc
 50
90.0
 51
180.0
  0
ARC
  5
19F1
330
1F
100
AcDbEntity
  8
SPOJOVACÍ
100
AcDbCircle
 10
2134.936789377023
 20
334.4076310511503
 30
0.0
 40
1.875
100
AcDbArc
 50
180.0
 51
270.0
  0
LINE
  5
19F2
330
1F
100
AcDbEntity
  8
SPOJOVACÍ
100
AcDbLine
 10
2146.968918558624
 20
327.3572838487383
 30
0.0
 11
2147.213449094482
 21
328.2698842325629
 31
0.0
  0
LINE
  5
19F3
330
1F
100
AcDbEntity
  8
SPOJOVACÍ
100
AcDbLine
 10
2145.147192390166
 20
327.5561044947684
 30
0.0
 11
2145.303158353108
 21
328.1381773927136
 31
0.0
  0
LINE
  5
19F4
330
1F
100
AcDbEntity
  8
SPOJOVACÍ
100
AcDbLine
 10
2139.624289377023
 20
327.8451310511503
 30
0.0
 11
2139.624289377023
 21
341.9076310511503
 31
0.0
  0
LINE
  5
19F5
330
1F
100
AcDbEntity
  8
SPOJOVACÍ
100
AcDbLine
 10
2142.482180872128
 20
341.9076310511503
 30
0.0
 11
2142.482180872128
 21
327.8451310511503
 31
0.0
  0
LINE
  5
19F6
330
1F
100
AcDbEntity
  8
SPOJOVACÍ
100
AcDbLine
 10
2142.482180872128
 20
341.9076310511503
 30
0.0
 11
2142.482180872128
 21
327.8451310511503
 31
0.0
  0
LINE
  5
19F7
330
1F
100
AcDbEntity
  8
SPOJOVACÍ
100
AcDbLine
 10
2157.951759460003
 20
326.360232518978
 30
0.0
 11
2158.799404901878
 21
329.5236883748597
 31
0.0
  0
LINE
  5
19F8
330
1F
100
AcDbEntity
  8
SPOJOVACÍ
100
AcDbLine
 10
2159.791043371275
 20
326.2269382611997
 30
0.0
 11
2160.710222009691
 21
329.6573596410011
 31
0.0
  0
LINE
  5
19F9
330
1F
100
AcDbEntity
  8
SPOJOVACÍ
100
AcDbLine
 10
2156.115004670509
 20
326.5029655877337
 30
0.0
 11
2156.885741259789
 21
329.3793936981795
 31
0.0
  0
LINE
  5
19FA
330
1F
100
AcDbEntity
  8
SPOJOVACÍ
100
AcDbLine
 10
2154.28077165113
 20
326.6551100306882
 30
0.0
 11
2154.969214805598
 21
329.2244148612829
 31
0.0
  0
LINE
  5
19FB
330
1F
100
AcDbEntity
  8
SPOJOVACÍ
100
AcDbLine
 10
2152.449053289678
 20
326.8166393047762
 30
0.0
 11
2153.049808850159
 21
329.0586895794262
 31
0.0
  0
LINE
  5
19FC
330
1F
100
AcDbEntity
  8
SPOJOVACÍ
100
AcDbLine
 10
2150.619842710323
 20
326.9875277490685
 30
0.0
 11
2151.127506283417
 21
328.8821539970134
 31
0.0
  0
LINE
  5
19FD
330
1F
100
AcDbEntity
  8
SPOJOVACÍ
100
AcDbLine
 10
2148.793133270617
 20
327.1677505736137
 30
0.0
 11
2149.202289564458
 21
328.6947426504733
 31
0.0
  0
LINE
  5
19FE
330
1F
100
AcDbEntity
  8
SPOJOVACÍ
100
AcDbLine
 10
2161.632863998697
 20
326.103111156974
 30
0.0
 11
2162.618208458976
 21
329.7804667456988
 31
0.0
  0
LINE
  5
19FF
330
1F
100
AcDbEntity
  8
SPOJOVACÍ
  6
DASHDOT2
100
AcDbLine
 10
2130.121579403694
 20
327.8451310511503
 30
0.0
 11
2245.041689147601
 21
327.8451310511485
 31
0.0
  0
DIMENSION
  5
1A00
330
1F
100
AcDbEntity
  8
POPIS
100
AcDbDimension
  2
*D3
 10
2148.885221492928
 20
393.5849940136307
 30
0.0
 11
2198.866662033019
 21
395.4599940136307
 31
0.0
 70
    32
  1
100
 71
     5
 42
99.96288108018234
  3
ISO-25
100
AcDbAlignedDimension
 13
2248.848102573111
 23
343.5240772425498
 33
0.0
 14
2148.885221492928
 24
373.0794471699104
 34
0.0
100
AcDbRotatedDimension
  0
LINE
  5
1A01
330
1F
100
AcDbEntity
  8
SPOJOVACÍ
  6
DASHED
100
AcDbLine
 10
2226.393775815802
 20
334.4076310511485
 30
0.0
 11
2145.294680872128
 21
334.4076310511503
 31
0.0
  0
HATCH
  5
1A02
330
1F
100
AcDbEntity
  8
NOSNÉ KONSTRUKCE
100
AcDbHatch
 10
0.0
 20
0.0
 30
0.0
210
0.0
220
0.0
230
1.0
  2
SOLID
 70
     1
 71
     0
 91
        9
 92
        7
 72
     0
 73
     1
 93
        4
 10
2018.467755136609
 20
288.516797879189
 10
2015.714162166343
 20
288.516797879189
 10
2015.714162166344
 20
284.4891401357303
 10
2018.467755136605
 20
284.4891401357311
 97
        0
 92
        7
 72
     1
 73
     1
 93
        6
 10
2018.467755136605
 20
280.0682975574403
 42
0.0
 10
2015.714162166343
 20
280.0682975574403
 42
0.0
 10
2015.714162166344
 20
231.8475248689923
 42
0.0
 10
2016.082007839754
 20
231.8475248689923
 42
-0.0219507802188373
 10
2016.077194112211
 20
231.9571202470164
 42
-0.8086719427280632
 10
2018.467755136607
 20
232.4686088095753
 42
0.0
 97
        0
 92
        7
 72
     1
 73
     1
 93
        5
 10
2018.467755136607
 20
231.4456316844592
 42
-0.7729996609236557
 10
2016.082007839754
 20
231.8475248689923
 42
0.0
 10
2015.714162166343
 20
231.8475248689923
 42
0.0
 10
2015.714162166344
 20
181.2128457625207
 42
0.0
 10
2018.467755136605
 20
181.2128457625207
 42
0.0
 97
        0
 92
        7
 72
     0
 73
     1
 93
        4
 10
2018.467755136607
 20
181.2128457625207
 10
2015.714162166343
 20
181.2128457625207
 10
2015.714162166343
 20
125.5994808719918
 10
2018.467755136607
 20
125.5994808719918
 97
        0
 92
        7
 72
     0
 73
     1
 93
        4
 10
2018.467755136607
 20
119.9155404141914
 10
2015.714162166343
 20
119.9155404141914
 10
2015.714162166344
 20
96.75064234074159
 10
2018.467755136607
 20
96.75064234074159
 97
        0
 92
        7
 72
     0
 73
     1
 93
        4
 10
2018.467755136609
 20
96.75064234074159
 10
2015.714162166343
 20
96.75064234074159
 10
2015.714162166344
 20
93.99704937047715
 10
2018.467755136607
 20
93.99704937047715
 97
        0
 92
        7
 72
     0
 73
     1
 93
        4
 10
2041.315990228915
 20
96.75064234074159
 10
2018.467755136607
 20
96.75064234074159
 10
2018.467755136607
 20
93.99704937047715
 10
2041.315990228913
 20
93.99704937047715
 97
        0
 92
        7
 72
     0
 73
     1
 93
        4
 10
2198.576864271663
 20
96.75064234074159
 10
2046.999930686717
 20
96.75064234074159
 10
2046.999930686719
 20
93.99704937047715
 10
2198.576864271664
 20
93.99704937047715
 97
        0
 92
        7
 72
     0
 73
     1
 93
        4
 10
2212.027246472611
 20
96.75064234074159
 10
2202.997706849953
 20
96.75064234074159
 10
2202.997706849953
 20
93.99704937047715
 10
2212.027246472611
 20
93.99704937047715
 97
        0
 75
     0
 76
     1
 47
0.407716661894762
 98
        9
 10
2017.079654813573
 20
287.0818232824735
 10
2017.487616763162
 20
264.2496932474918
 10
2017.487616763162
 20
203.4998919641242
 10
2017.89557871276
 20
148.4581451991565
 10
2017.89557871276
 20
103.2015919898279
 10
2017.079654813573
 20
95.86269242116612
 10
2023.199143414621
 20
96.2703992818009
 10
2075.010963941716
 20
95.86269242116612
 10
2210.048060936107
 20
95.0472610921737
  0
HATCH
  5
1A03
330
1F
100
AcDbEntity
  8
NOSNÉ KONSTRUKCE
100
AcDbHatch
 10
0.0
 20
0.0
 30
0.0
210
0.0
220
0.0
230
1.0
  2
SOLID
 70
     1
 71
     0
 91
       11
 92
        7
 72
     0
 73
     1
 93
        4
 10
2242.285602573109
 20
227.5266571386477
 10
2219.648261871447
 20
227.5266571386477
 10
2219.648261871445
 20
224.48953821883
 10
2242.28560257311
 20
224.4895382188281
 97
        0
 92
        7
 72
     0
 73
     1
 93
        4
 10
2219.648261871447
 20
227.5266571386477
 10
2218.21083146097
 20
227.5266571386477
 10
2218.210831460972
 20
185.7845670896825
 10
2219.648261871451
 20
185.7866847496228
 97
        0
 92
        7
 72
     0
 73
     1
 93
        4
 10
2219.648261871451
 20
185.7866847496228
 10
2218.210831460974
 20
185.7845670896825
 10
2218.210831460979
 20
144.1981058891736
 10
2219.648261871452
 20
144.1981058891746
 97
        0
 92
        7
 72
     0
 73
     1
 93
        4
 10
2219.648261871454
 20
144.1981058891727
 10
2218.210831460977
 20
144.1981058891727
 10
2218.210831460981
 20
115.1462887262117
 10
2219.648261871458
 20
115.1462887262126
 97
        0
 92
        7
 72
     0
 73
     1
 93
        4
 10
2219.648261871458
 20
110.7254461479227
 10
2218.210831460981
 20
110.7254461479236
 10
2218.210831460983
 20
99.50371601998666
 10
2219.648261871456
 20
99.50371601998847
 97
        0
 92
        7
 72
     0
 73
     1
 93
        4
 10
2215.929774365362
 20
110.7254461479227
 10
2214.492343954889
 20
110.7254461479227
 10
2214.492343954889
 20
99.50371601998666
 10
2215.929774365362
 20
99.50371601998847
 97
        0
 92
        7
 72
     0
 73
     1
 93
        4
 10
2215.929774365362
 20
144.1981058891727
 10
2214.492343954889
 20
144.1981058891727
 10
2214.492343954889
 20
115.1462887262117
 10
2215.929774365362
 20
115.1462887262117
 97
        0
 92
        7
 72
     0
 73
     1
 93
        6
 10
2218.210831460976
 20
156.7379025479161
 10
2218.210831460974
 20
159.5302608198165
 10
2214.492343954887
 20
153.8737159892956
 10
2214.492343954887
 20
144.1981058891736
 10
2215.929774365364
 20
144.1981058891736
 10
2215.92977436536
 20
152.7327941879124
 97
        0
 92
        7
 72
     0
 73
     1
 93
        4
 10
2270.43498921052
 20
227.5266571386477
 10
2255.410602573109
 20
227.5266571386477
 10
2255.410602573109
 20
224.4895382188281
 10
2270.43498921052
 20
224.4895382188281
 97
        0
 92
        7
 72
     0
 73
     1
 93
        4
 10
2255.410602573109
 20
227.5266571386477
 10
2248.848102573111
 20
227.5266571386477
 10
2248.848102573111
 20
224.4895382188281
 10
2255.410602573109
 20
224.4895382188281
 97
        0
 92
        7
 72
     0
 73
     1
 93
        4
 10
2248.848102573109
 20
227.5266571386477
 10
2242.285602573109
 20
227.5266571386477
 10
2242.285602573109
 20
224.4895382188291
 10
2248.848102573111
 20
224.4895382188281
 97
        0
 75
     0
 76
     1
 47
0.2740416214367683
 98
       11
 10
2225.688056588176
 20
226.0816753722632
 10
2219.381207024835
 20
224.4374308436621
 10
2219.381207024835
 20
176.4801344207102
 10
2219.107006497241
 20
136.4700668399258
 10
2219.107006497241
 20
104.4071928858633
 10
2214.9938501904
 20
104.681221902147
 10
2215.268080396588
 20
126.3305178288632
 10
2215.816481451769
 20
154.8308561017169
 10
2262.706374313933
 20
226.6297510125535
 10
2251.463766860975
 20
226.3557219962698
 10
2245.156946976221
 20
224.985506483956
  0
HATCH
  5
1A04
330
1F
100
AcDbEntity
  8
NOSNÉ KONSTRUKCE
100
AcDbHatch
 10
0.0
 20
0.0
 30
0.0
210
0.0
220
0.0
230
1.0
  2
SOLID
 70
     1
 71
     0
 91
       12
 92
        7
 72
     0
 73
     1
 93
        4
 10
2148.84810257311
 20
321.2826310511503
 10
2145.885221492926
 20
321.2826310511503
 10
2145.885221492924
 20
302.451767381612
 10
2148.84810257311
 20
302.451767381612
 97
        0
 92
        7
 72
     0
 73
     1
 93
        4
 10
2148.84810257311
 20
348.7928102405288
 10
2145.885221492926
 20
350.6771220470176
 10
2145.885221492926
 20
334.4076310511503
 10
2148.848102573112
 20
334.4076310511503
 97
        0
 92
        7
 72
     0
 73
     1
 93
        4
 10
2148.84810257311
 20
334.4076310511503
 10
2145.885221492926
 20
334.4076310511494
 10
2145.885221492926
 20
327.8451310511494
 10
2148.84810257311
 20
327.8451310511494
 97
        0
 92
        7
 72
     0
 73
     1
 93
        4
 10
2148.84810257311
 20
327.8451310511503
 10
2145.885221492924
 20
327.8451310511503
 10
2145.885221492928
 20
321.2826310511494
 10
2148.84810257311
 20
321.2826310511485
 97
        0
 92
        7
 72
     0
 73
     1
 93
        4
 10
2148.848102573112
 20
353.2384947206832
 10
2145.885221492926
 20
353.2384947206841
 10
2145.885221492926
 20
350.6771220470185
 10
2148.848102573112
 20
348.7928102405279
 97
        0
 92
        7
 72
     0
 73
     1
 93
        4
 10
2032.084010502203
 20
302.4517673816193
 10
2020.862280374265
 20
302.4517673816193
 10
2020.862280374265
 20
301.0143369711453
 10
2032.084010502201
 20
301.0143369711444
 97
        0
 92
        7
 72
     0
 73
     1
 93
        4
 10
2032.084010502205
 20
298.7332798755254
 10
2020.862280374267
 20
298.7332798755254
 10
2020.862280374265
 20
297.2958494650505
 10
2032.084010502201
 20
297.2958494650505
 97
        0
 92
        7
 72
     0
 73
     1
 93
        4
 10
2065.176689641368
 20
298.7332798755254
 10
2036.50485308049
 20
298.7332798755254
 10
2036.50485308049
 20
297.2958494650505
 10
2065.176689641365
 20
297.2958494650505
 97
        0
 92
        7
 72
     0
 73
     1
 93
        4
 10
2065.176689641366
 20
302.4517673816175
 10
2036.50485308049
 20
302.4517673816193
 10
2036.504853080492
 20
301.0143369711444
 10
2065.176689641363
 20
301.0143369711426
 97
        0
 92
        7
 72
     0
 73
     1
 93
        4
 10
2106.992191413988
 20
302.4517673816148
 10
2065.176689641365
 20
302.4517673816175
 10
2065.176689641365
 20
301.0143369711426
 10
2106.994309073925
 20
301.0143369711398
 97
        0
 92
        7
 72
     0
 73
     1
 93
        6
 10
2080.888825174099
 20
301.0143369711426
 10
2078.096466902195
 20
301.0143369711426
 10
2074.091358542195
 20
298.7332798755254
 10
2065.176689641365
 20
298.7332798755254
 10
2065.176689641366
 20
297.2958494650505
 10
2075.232280343572
 20
297.2958494650505
 97
        0
 92
        7
 72
     0
 73
     1
 93
        4
 10
2148.84810257311
 20
302.451767381612
 10
2106.992191413985
 20
302.4517673816156
 10
2106.994309073927
 20
301.0143369711389
 10
2148.84810257311
 20
301.0143369711371
 97
        0
 75
     0
 76
     1
 47
0.2019084522994349
 98
       12
 10
2147.557288808424
 20
308.4404332855359
 10
2148.186118852648
 20
337.6626354394269
 10
2147.557288808424
 20
331.3782977060967
 10
2147.242873786312
 20
323.5228579317066
 10
2147.871703830536
 20
352.1166227907218
 10
2027.321143942394
 20
302.0103212011294
 10
2026.917069888582
 20
298.1740558349505
 10
2040.25121687839
 20
297.9721480581887
 10
2039.645120636971
 20
302.0103212011294
 10
2070.960162360333
 20
301.4045978708476
 10
2072.374377030781
 20
297.5683325046687
 10
2111.164625517365
 20
301.4045978708476
  0
TEXT
  5
1A05
330
1F
100
AcDbEntity
  8
POPIS
100
AcDbText
 10
1783.128278796633
 20
804.5254043156987
 30
0.0
 40
50.0
  1
VNĚJŠÍ ROH
 41
0.85
  7
SIMPLEX7
100
AcDbText
  0
TEXT
  5
1A06
330
1F
100
AcDbEntity
  8
POPIS
100
AcDbText
 10
1783.128278796633
 20
749.9006612898978
 30
0.0
 40
35.0
  1
PŮDORYS-ŘEŠENÍ S ROHOVÝM PROFILEM
 41
0.75
  7
SIMPLEX7
100
AcDbText
  0
LINE
  5
1A07
330
1F
100
AcDbEntity
  8
STAVBA OBRYS
100
AcDbLine
 10
2395.440973147757
 20
642.7390882783205
 30
0.0
 11
2395.440973147757
 21
472.5266571386477
 31
0.0
  0
LINE
  5
1A08
330
1F
100
AcDbEntity
  8
STAVBA OBRYS
100
AcDbLine
 10
2395.440973147757
 20
472.5266571386477
 30
0.0
 11
2592.386814953715
 21
472.5266571386477
 31
0.0
  0
HATCH
  5
1A09
330
1F
100
AcDbEntity
  8
STAVBA OBRYS
100
AcDbHatch
 10
0.0
 20
0.0
 30
0.0
210
0.0
220
0.0
230
1.0
  2
AR-SAND
 70
     0
 71
     0
 91
        1
 92
        7
 72
     0
 73
     1
 93
        6
 10
2395.44097314776
 20
642.7390882783205
 10
2385.440973147753
 20
642.7390882783205
 10
2385.440973147753
 20
462.5266571386476
 10
2592.386814953712
 20
462.5266571386476
 10
2592.386814953715
 20
472.5266571386477
 10
2395.44097314776
 20
472.5266571386477
 97
        0
 75
     0
 76
     1
 52
0.0
 41
0.1
 77
     0
 78
     4
 53
37.5
 43
-9255.913108575409
 44
1637.237900543898
 45
-0.1600031295984046
 46
4.894132373293423
 79
     6
 49
0.0
 49
-3.8608
 49
0.0
 49
-4.318
 49
0.0
 49
-4.1275
 53
7.499999999999999
 43
-9255.913108575409
 44
1637.237900543898
 45
4.495232831380026
 46
7.168251005683543
 79
     6
 49
0.0
 49
-2.0828
 49
0.0
 49
-3.4798
 49
0.0
 49
-1.3335
 53
327.4999999999999
 43
-9259.037308575409
 44
1637.237900543898
 45
7.909923702414579
 46
0.0143718467854569
 79
     6
 49
0.0
 49
-1.27
 49
0.0
 49
-4.572
 49
0.0
 49
-5.969
 53
317.5
 43
-9259.037308575409
 44
1637.237900543898
 45
7.635564524722972
 46
2.229293232572162
 79
     6
 49
0.0
 49
-0.635
 49
0.0
 49
-2.997199999999999
 49
0.0
 49
-3.429
 47
0.8733352055991209
 98
        1
 10
2391.904741863185
 20
497.5726417265599
  0
TEXT
  5
1A0A
330
1F
100
AcDbEntity
  8
POPIS
100
AcDbText
 10
1887.068381159679
 20
-360.3905302324069
 30
0.0
 40
25.0
  1
Rohový profil - klempířský výrobek
 41
0.7
  7
SIMPLEX7
100
AcDbText
  0
LINE
  5
1ADE
330
1F
100
AcDbEntity
  8
PROFILY
100
AcDbLine
 10
2249.24996613132
 20
88.11523200172269
 30
0.0
 11
2184.806909883973
 21
88.11523200172269
 31
0.0
  0
LINE
  5
1ADF
330
1F
100
AcDbEntity
  8
PROFILY
  6
DASHED
370
    40
100
AcDbLine
 10
2249.24996613132
 20
88.31523200172297
 30
0.0
 11
2184.806909883973
 21
88.31523200172341
 31
0.0
  0
LINE
  5
1AE0
330
1F
100
AcDbEntity
  8
PROFILY
100
AcDbLine
 10
2249.236510057908
 20
88.51523200172323
 30
0.0
 11
2184.806909883973
 21
88.51523200172323
 31
0.0
  0
LINE
  5
1AE1
330
1F
100
AcDbEntity
  8
POPIS
100
AcDbLine
 10
1844.256029166325
 20
307.7617687731258
 30
0.0
 11
2009.612215828547
 21
307.7617687731258
 31
0.0
  0
INSERT
  5
1AE2
330
1F
100
AcDbEntity
  8
POPIS
100
AcDbBlockReference
  2
E_PUNKT
 10
2009.315315285918
 20
307.0364538657372
 30
0.0
 41
-1.0
  0
LINE
  5
1AE3
330
1F
100
AcDbEntity
  8
PROFILY
100
AcDbLine
 10
2009.212215828546
 20
332.3661099286089
 30
0.0
 11
2009.212215828546
 21
267.9365097546729
 31
0.0
  0
LINE
  5
1AE4
330
1F
100
AcDbEntity
  8
PROFILY
  6
DASHED
370
    40
100
AcDbLine
 10
2009.412215828546
 20
332.3795660020209
 30
0.0
 11
2009.412215828546
 21
267.9365097546729
 31
0.0
  0
LINE
  5
1AE5
330
1F
100
AcDbEntity
  8
PROFILY
100
AcDbLine
 10
2009.612215828547
 20
332.3795660020209
 30
0.0
 11
2009.612215828547
 21
267.9365097546729
 31
0.0
  0
TEXT
  5
1AE6
330
1F
100
AcDbEntity
  8
POPIS
100
AcDbText
 10
1803.720593871775
 20
294.3184273237552
 30
0.0
 40
25.0
  1
10
 41
0.7
  7
SIMPLEX7
100
AcDbText
  0
LINE
  5
1AE7
330
1F
100
AcDbEntity
  8
POPIS
100
AcDbLine
 10
2088.470832333307
 20
17.0184759405588
 30
0.0
 11
2017.528731624172
 21
17.0184759405588
 31
0.0
  0
TEXT
  5
1AE8
330
1F
100
AcDbEntity
  8
POPIS
100
AcDbText
 10
2062.234571022437
 20
23.85068067258464
 30
0.0
 40
25.0
  1
35
 41
0.7
  7
SIMPLEX7
100
AcDbText
  0
LINE
  5
1AE9
330
1F
100
AcDbEntity
  8
POPIS
100
AcDbLine
 10
2021.81857443791
 20
45.81254356345971
 30
0.0
 11
2021.81857443791
 21
4.518475940558801
 31
0.0
  0
INSERT
  5
1AEA
330
1F
100
AcDbEntity
  8
POPIS
100
AcDbBlockReference
  2
_ArchTick
 10
2021.759888927826
 20
17.01847594055891
 30
0.0
 41
15.0
 42
15.0
 43
15.0
 50
180.0
  0
LINE
  5
1AEC
330
1F
100
AcDbEntity
  8
POPIS
100
AcDbLine
 10
2045.108891852862
 20
48.00148579646202
 30
0.0
 11
2045.108891852862
 21
4.518475940558801
 31
0.0
  0
INSERT
  5
1AED
330
1F
100
AcDbEntity
  8
POPIS
100
AcDbBlockReference
  2
_ArchTick
 10
2045.108891852862
 20
17.01847594055891
 30
0.0
 41
15.0
 42
15.0
 43
15.0
  0
TEXT
  5
1AF2
330
1F
100
AcDbEntity
  8
POPIS
100
AcDbText
 10
1830.646902914664
 20
-540.9509750038282
 30
0.0
 40
25.0
  1
10
 41
0.85
  7
SIMPLEX7
100
AcDbText
  0
TEXT
  5
1AF3
330
1F
100
AcDbEntity
  8
POPIS
100
AcDbText
 10
1884.990606074407
 20
-540.9509750038282
 30
0.0
 40
25.0
  1
Podkladní EPDM páska tl.1 mm
 41
0.7
  7
SIMPLEX7
100
AcDbText
  0
ENDSEC
  0
SECTION
  2
OBJECTS
  0
DICTIONARY
  5
C
330
0
100
AcDbDictionary
281
     1
  3
ACAD_GROUP
350
D
  3
ACAD_LAYOUT
350
1A
  3
ACAD_MLINESTYLE
350
17
  3
ACAD_PLOTSETTINGS
350
19
  3
ACAD_PLOTSTYLENAME
350
E
  3
AcDbVariableDictionary
350
1AF5
  0
DICTIONARY
  5
1A36
330
1F
100
AcDbDictionary
280
     1
281
     1
  3
ACAD_LAYOUTSELFREF
360
1AB7
  0
DICTIONARY
  5
1A38
330
1B
100
AcDbDictionary
280
     1
281
     1
  3
ACAD_LAYOUTSELFREF
360
1AB6
  0
DICTIONARY
  5
1A3A
330
23
100
AcDbDictionary
280
     1
281
     1
  3
ACAD_LAYOUTSELFREF
360
1AB8
  0
DICTIONARY
  5
D
102
{ACAD_REACTORS
330
C
102
}
330
C
100
AcDbDictionary
281
     1
  0
DICTIONARY
  5
1A
102
{ACAD_REACTORS
330
C
102
}
330
C
100
AcDbDictionary
281
     1
  3
Model
350
22
  3
Rozvržení1
350
1E
  3
Rozvržení2
350
26
  0
DICTIONARY
  5
17
102
{ACAD_REACTORS
330
C
102
}
330
C
100
AcDbDictionary
281
     1
  3
Standard
350
18
  0
DICTIONARY
  5
19
102
{ACAD_REACTORS
330
C
102
}
330
C
100
AcDbDictionary
281
     1
  0
ACDBDICTIONARYWDFLT
  5
E
102
{ACAD_REACTORS
330
C
102
}
330
C
100
AcDbDictionary
281
     1
  3
Normal
350
F
100
AcDbDictionaryWithDefault
340
F
  0
DICTIONARY
  5
1AF5
102
{ACAD_REACTORS
330
C
102
}
330
C
100
AcDbDictionary
281
     1
  3
DIMASSOC
350
1AF6
  0
XRECORD
  5
1AB7
102
{ACAD_REACTORS
330
1A36
102
}
330
1A36
100
AcDbXrecord
280
     1
340
1F
  0
XRECORD
  5
1AB6
102
{ACAD_REACTORS
330
1A38
102
}
330
1A38
100
AcDbXrecord
280
     1
340
1B
  0
XRECORD
  5
1AB8
102
{ACAD_REACTORS
330
1A3A
102
}
330
1A3A
100
AcDbXrecord
280
     1
340
23
  0
LAYOUT
  5
22
102
{ACAD_REACTORS
330
1A
102
}
330
1A
100
AcDbPlotSettings
  1

  2
HP DeskJet 690C
  4

  6

 40
0.0
 41
0.0
 42
0.0
 43
0.0
 44
0.0
 45
0.0
 46
0.0
 47
0.0
 48
0.0
 49
0.0
140
0.0
141
0.0
142
1.0
143
1.0
 70
  1712
 72
     0
 73
     0
 74
     0
  7
monochrome.ctb
 75
     0
147
1.0
148
0.0
149
0.0
100
AcDbLayout
  1
Model
 70
     1
 71
     0
 10
0.0
 20
0.0
 11
12.0
 21
9.0
 12
0.0
 22
0.0
 32
0.0
 14
0.0
 24
0.0
 34
0.0
 15
0.0
 25
0.0
 35
0.0
146
0.0
 13
0.0
 23
0.0
 33
0.0
 16
1.0
 26
0.0
 36
0.0
 17
0.0
 27
1.0
 37
0.0
 76
     0
330
1F
  0
LAYOUT
  5
1E
102
{ACAD_REACTORS
330
1A
102
}
330
1A
100
AcDbPlotSettings
  1

  2
HP DeskJet 690C
  4

  6

 40
0.0
 41
0.0
 42
0.0
 43
0.0
 44
0.0
 45
0.0
 46
0.0
 47
0.0
 48
0.0
 49
0.0
140
0.0
141
0.0
142
1.0
143
1.0
 70
   688
 72
     0
 73
     0
 74
     5
  7
monochrome.ctb
 75
    16
147
1.0
148
0.0
149
0.0
100
AcDbLayout
  1
Rozvržení1
 70
     1
 71
     1
 10
0.0
 20
0.0
 11
420.0
 21
297.0
 12
0.0
 22
0.0
 32
0.0
 14
1.000000000000000E+20
 24
1.000000000000000E+20
 34
1.000000000000000E+20
 15
-1.000000000000000E+20
 25
-1.000000000000000E+20
 35
-1.000000000000000E+20
146
0.0
 13
0.0
 23
0.0
 33
0.0
 16
1.0
 26
0.0
 36
0.0
 17
0.0
 27
1.0
 37
0.0
 76
     0
330
1B
  0
LAYOUT
  5
26
102
{ACAD_REACTORS
330
1A
102
}
330
1A
100
AcDbPlotSettings
  1

  2
HP DeskJet 690C
  4

  6

 40
0.0
 41
0.0
 42
0.0
 43
0.0
 44
0.0
 45
0.0
 46
0.0
 47
0.0
 48
0.0
 49
0.0
140
0.0
141
0.0
142
1.0
143
1.0
 70
   688
 72
     0
 73
     0
 74
     5
  7
monochrome.ctb
 75
    16
147
1.0
148
0.0
149
0.0
100
AcDbLayout
  1
Rozvržení2
 70
     1
 71
     2
 10
0.0
 20
0.0
 11
12.0
 21
9.0
 12
0.0
 22
0.0
 32
0.0
 14
0.0
 24
0.0
 34
0.0
 15
0.0
 25
0.0
 35
0.0
146
0.0
 13
0.0
 23
0.0
 33
0.0
 16
1.0
 26
0.0
 36
0.0
 17
0.0
 27
1.0
 37
0.0
 76
     0
330
23
  0
MLINESTYLE
  5
18
102
{ACAD_REACTORS
330
17
102
}
330
17
100
AcDbMlineStyle
  2
STANDARD
 70
     0
  3

 62
   256
 51
90.0
 52
90.0
 71
     2
 49
0.5
 62
   256
  6
BYLAYER
 49
-0.5
 62
   256
  6
BYLAYER
  0
ACDBPLACEHOLDER
  5
F
102
{ACAD_REACTORS
330
E
102
}
330
E
  0
DICTIONARYVAR
  5
1AF6
102
{ACAD_REACTORS
330
1AF5
102
}
330
1AF5
100
DictionaryVariables
280
     0
  1
1
  0
ENDSEC
  0
EOF
